osu file format v14

[General]
AudioFilename: Kirby.mp3
AudioLeadIn: 1500
PreviewTime: 77343
Countdown: 0
SampleSet: Soft
StackLeniency: 0.7
Mode: 3
LetterboxInBreaks: 0
WidescreenStoryboard: 1

[Editor]
DistanceSpacing: 0.8
BeatDivisor: 4
GridSize: 4
TimelineZoom: 1.6

[Metadata]
Title:Kirby SDX Ending (W-L-K Edit)
TitleUnicode:星のカービィSDXエンディング (W-L-K Edit)
Artist:AOiRO_Manbow
ArtistUnicode:AOiRO_Manbow
Creator:ExPew
Version:Extra
Source:BMS
Tags:bof 2015 Ultimate TechnoPop Remix hapi=> Kuo_Kyoka Maiz94 Kirby Super Star Ending Theme
BeatmapID:855601
BeatmapSetID:393040

[Difficulty]
HPDrainRate:9
CircleSize:7
OverallDifficulty:9
ApproachRate:5
SliderMultiplier:1.4
SliderTickRate:1

[Events]
//Background and Video events
0,0,"bg.jpg",0,0
//Break Periods
//Storyboard Layer 0 (Background)
//Storyboard Layer 1 (Fail)
//Storyboard Layer 2 (Pass)
//Storyboard Layer 3 (Foreground)
//Storyboard Sound Samples

[TimingPoints]
10,333.333333333333,4,2,0,30,1,0

[HitObjects]
109,192,17343,5,0,0:0:0:30:Crash.wav
402,192,17509,1,0,0:0:0:0:
402,192,17593,1,0,0:0:0:0:
256,192,17676,1,0,0:0:0:0:
475,192,17676,1,0,0:0:0:0:
329,192,17843,1,0,0:0:0:0:
329,192,17926,1,0,0:0:0:0:
182,192,18009,1,0,0:0:0:0:
402,192,18009,1,0,0:0:0:0:
256,192,18176,1,0,0:0:0:0:
109,192,18343,1,0,0:0:0:0:
329,192,18343,1,0,0:0:0:0:
36,192,18676,5,0,0:0:0:50:Kick.wav
475,192,18676,1,0,0:0:0:0:
256,192,18676,1,0,0:0:0:30:Crash.wav
329,192,18843,1,0,0:0:0:0:
256,192,19009,1,0,0:0:0:45:Clap.wav
402,192,19009,1,0,0:0:0:0:
36,192,19009,1,0,0:0:0:50:Kick.wav
475,192,19176,128,0,19343:0:0:0:0:
329,192,19343,1,0,0:0:0:0:
36,192,19343,1,0,0:0:0:50:Kick.wav
402,192,19509,128,0,19676:0:0:0:0:
109,192,19676,1,0,0:0:0:45:Clap.wav
256,192,19676,1,0,0:0:0:0:
36,192,19676,1,0,0:0:0:50:Kick.wav
475,192,19843,128,0,20009:0:0:0:0:
182,192,20009,1,0,0:0:0:0:
36,192,20009,1,0,0:0:0:50:Kick.wav
329,192,20176,1,0,0:0:0:0:
475,192,20343,128,0,20676:0:0:0:0:
182,192,20343,1,0,0:0:0:45:Clap.wav
36,192,20343,1,0,0:0:0:50:Kick.wav
182,192,20676,1,0,0:0:0:0:
36,192,20676,1,0,0:0:0:50:Kick.wav
402,192,20843,128,0,21176:0:0:0:0:
36,192,20843,1,0,0:0:0:50:Kick.wav
256,192,21009,1,0,0:0:0:45:Clap.wav
109,192,21009,1,0,0:0:0:50:Kick.wav
256,192,21176,1,0,0:0:0:0:
109,192,21176,1,0,0:0:0:50:Kick.wav
475,192,21343,128,0,21509:0:0:0:0:
36,192,21343,1,0,0:0:0:50:Kick.wav
329,192,21676,1,0,0:0:0:0:
182,192,21676,1,0,0:0:0:45:Clap.wav
36,192,21676,1,0,0:0:0:50:Kick.wav
475,192,21843,128,0,22176:0:0:0:0:
36,192,22009,1,0,0:0:0:50:Kick.wav
256,192,22176,1,0,0:0:0:0:
402,192,22343,128,0,22676:0:0:0:0:
182,192,22343,1,0,0:0:0:45:Clap.wav
36,192,22343,1,0,0:0:0:50:Kick.wav
475,192,22676,1,0,0:0:0:0:
36,192,22676,1,0,0:0:0:50:Kick.wav
329,192,22843,1,0,0:0:0:0:
475,192,23009,1,0,0:0:0:0:
182,192,23009,1,0,0:0:0:45:Clap.wav
36,192,23009,1,0,0:0:0:50:Kick.wav
329,192,23176,1,0,0:0:0:0:
475,192,23343,1,0,0:0:0:0:
256,192,23343,1,0,0:0:0:50:Kick.wav
182,192,23426,1,0,0:0:0:50:Kick.wav
402,192,23509,1,0,0:0:0:0:
109,192,23509,1,0,0:0:0:50:Kick.wav
36,192,23593,1,0,0:0:0:50:Kick.wav
475,192,23676,1,0,0:0:0:0:
256,192,23676,1,0,0:0:0:45:Clap.wav
109,192,23676,1,0,0:0:0:50:Kick.wav
402,192,23843,1,0,0:0:0:0:
109,192,23843,1,0,0:0:0:50:Kick.wav
475,192,24009,1,0,0:0:0:0:
36,192,24009,1,0,0:0:0:50:Kick.wav
402,192,24176,1,0,0:0:0:0:
329,192,24343,1,0,0:0:0:0:
182,192,24343,1,0,0:0:0:45:Clap.wav
36,192,24343,1,0,0:0:0:50:Kick.wav
475,192,24509,128,0,24843:0:0:0:0:
36,192,24676,1,0,0:0:0:50:Kick.wav
329,192,24843,1,0,0:0:0:0:
475,192,25009,128,0,25343:0:0:0:0:
182,192,25009,1,0,0:0:0:45:Clap.wav
36,192,25009,1,0,0:0:0:50:Kick.wav
402,192,25343,1,0,0:0:0:0:
36,192,25343,1,0,0:0:0:50:Kick.wav
475,192,25509,1,0,0:0:0:0:
402,192,25676,1,0,0:0:0:0:
182,192,25676,1,0,0:0:0:45:Clap.wav
36,192,25676,1,0,0:0:0:50:Kick.wav
475,192,25843,1,0,0:0:0:0:
329,192,26009,1,0,0:0:0:0:
36,192,26009,1,0,0:0:0:50:Kick.wav
475,192,26176,1,0,0:0:0:0:
329,192,26343,1,0,0:0:0:0:
182,192,26343,1,0,0:0:0:45:Clap.wav
36,192,26343,1,0,0:0:0:50:Kick.wav
109,192,26384,1,0,0:0:0:50:Kick.wav
475,192,26426,1,0,0:0:0:50:Kick.wav
256,192,26468,1,0,0:0:0:50:Kick.wav
329,192,26509,1,0,0:0:0:0:
182,192,26509,1,0,0:0:0:50:Kick.wav
256,192,26676,1,0,0:0:0:0:
36,192,26676,1,0,0:0:0:50:Kick.wav
109,192,26843,1,0,0:0:0:35:Hats.wav
329,192,26843,1,0,0:0:0:0:
402,192,27009,1,0,0:0:0:0:
36,192,27009,1,0,0:0:0:50:Kick.wav
256,192,27176,1,0,0:0:0:35:Hats.wav
475,192,27176,1,0,0:0:0:0:
402,192,27343,1,0,0:0:0:0:
36,192,27343,1,0,0:0:0:50:Kick.wav
109,192,27509,1,0,0:0:0:35:Hats.wav
329,192,27509,1,0,0:0:0:0:
256,192,27676,1,0,0:0:0:0:
36,192,27676,1,0,0:0:0:50:Kick.wav
402,192,27843,1,0,0:0:0:35:Hats.wav
182,192,27843,1,0,0:0:0:0:
256,192,28009,1,0,0:0:0:0:
36,192,28009,1,0,0:0:0:50:Kick.wav
109,192,28176,1,0,0:0:0:35:Hats.wav
329,192,28176,1,0,0:0:0:0:
402,192,28343,1,0,0:0:0:0:
36,192,28343,1,0,0:0:0:50:Kick.wav
256,192,28509,1,0,0:0:0:35:Hats.wav
475,192,28509,1,0,0:0:0:0:
329,192,28676,1,0,0:0:0:0:
36,192,28676,1,0,0:0:0:50:Kick.wav
182,192,28759,1,0,0:0:0:50:Kick.wav
329,192,28843,1,0,0:0:0:0:
36,192,28843,1,0,0:0:0:50:Kick.wav
182,192,28926,1,0,0:0:0:50:Kick.wav
329,192,29009,1,0,0:0:0:0:
36,192,29009,1,0,0:0:0:50:Kick.wav
402,192,29176,1,0,0:0:0:0:
109,192,29176,1,0,0:0:0:50:Kick.wav
475,192,29343,1,0,0:0:0:0:
182,192,29343,1,0,0:0:0:45:Snare.wav
36,192,29343,1,0,0:0:0:50:Kick.wav
329,192,29509,1,0,0:0:0:0:
475,192,29676,1,0,0:0:0:0:
256,192,29676,1,0,0:0:0:45:Snare.wav
109,192,29676,1,0,0:0:0:50:Kick.wav
329,192,29843,128,0,30009:0:0:0:0:
475,192,30009,1,0,0:0:0:0:
182,192,30009,1,0,0:0:0:45:Snare.wav
36,192,30009,1,0,0:0:0:50:Kick.wav
475,192,30176,128,0,30343:0:0:0:0:
402,192,30343,1,0,0:0:0:0:
256,192,30343,1,0,0:0:0:45:Snare.wav
109,192,30343,1,0,0:0:0:50:Kick.wav
402,192,30509,128,0,30676:0:0:0:0:
329,192,30676,1,0,0:0:0:0:
182,192,30676,1,0,0:0:0:45:Snare.wav
36,192,30676,1,0,0:0:0:50:Kick.wav
402,192,30843,1,0,0:0:0:0:
475,192,31009,128,0,31343:0:0:0:0:
256,192,31009,1,0,0:0:0:45:Snare.wav
109,192,31009,1,0,0:0:0:50:Kick.wav
329,192,31343,1,0,0:0:0:0:
182,192,31343,1,0,0:0:0:45:Snare.wav
36,192,31343,1,0,0:0:0:50:Kick.wav
402,192,31509,128,0,31843:0:0:0:0:
182,192,31509,1,0,0:0:0:45:Snare.wav
36,192,31509,1,0,0:0:0:50:Kick.wav
256,192,31676,1,0,0:0:0:45:Snare.wav
109,192,31676,1,0,0:0:0:50:Kick.wav
256,192,31843,1,0,0:0:0:45:Snare.wav
109,192,31843,1,0,0:0:0:50:Kick.wav
402,192,32009,128,0,32176:0:0:0:0:
182,192,32009,1,0,0:0:0:45:Snare.wav
36,192,32009,1,0,0:0:0:50:Kick.wav
475,192,32343,1,0,0:0:0:0:
256,192,32343,1,0,0:0:0:45:Snare.wav
109,192,32343,1,0,0:0:0:50:Kick.wav
475,192,32509,128,0,32843:0:0:0:0:
182,192,32676,1,0,0:0:0:45:Snare.wav
36,192,32676,1,0,0:0:0:50:Kick.wav
329,192,32843,1,0,0:0:0:0:
329,192,33009,128,0,33343:0:0:0:0:
256,192,33009,1,0,0:0:0:45:Snare.wav
109,192,33009,1,0,0:0:0:50:Kick.wav
475,192,33343,1,0,0:0:0:0:
182,192,33343,1,0,0:0:0:45:Snare.wav
36,192,33343,1,0,0:0:0:50:Kick.wav
329,192,33509,1,0,0:0:0:0:
475,192,33676,1,0,0:0:0:0:
256,192,33676,1,0,0:0:0:45:Snare.wav
109,192,33676,1,0,0:0:0:50:Kick.wav
329,192,33843,1,0,0:0:0:0:
475,192,34009,1,0,0:0:0:0:
182,192,34009,1,0,0:0:0:45:Snare.wav
36,192,34009,1,0,0:0:0:50:Kick.wav
109,192,34093,1,0,0:0:0:50:Kick.wav
402,192,34176,1,0,0:0:0:45:Snare.wav
256,192,34176,1,0,0:0:0:50:Kick.wav
329,192,34259,1,0,0:0:0:50:Kick.wav
182,192,34343,1,0,0:0:0:45:Snare.wav
36,192,34343,1,0,0:0:0:50:Kick.wav
182,192,34509,1,0,0:0:0:45:Snare.wav
36,192,34509,1,0,0:0:0:50:Kick.wav
475,192,34676,1,0,0:0:0:0:
182,192,34676,1,0,0:0:0:45:Snare.wav
36,192,34676,1,0,0:0:0:50:Kick.wav
402,192,34843,1,0,0:0:0:0:
256,192,34843,1,0,0:0:0:45:Snare.wav
475,192,35009,1,0,0:0:0:0:
182,192,35009,1,0,0:0:0:45:Snare.wav
36,192,35009,1,0,0:0:0:50:Kick.wav
475,192,35176,128,0,35509:0:0:0:0:
256,192,35176,1,0,0:0:0:45:Snare.wav
182,192,35343,1,0,0:0:0:45:Snare.wav
36,192,35343,1,0,0:0:0:50:Kick.wav
329,192,35509,1,0,0:0:0:0:
109,192,35509,1,0,0:0:0:45:Snare.wav
329,192,35676,128,0,36009:0:0:0:0:
182,192,35676,1,0,0:0:0:45:Snare.wav
36,192,35676,1,0,0:0:0:50:Kick.wav
109,192,35843,1,0,0:0:0:45:Snare.wav
475,192,36009,1,0,0:0:0:0:
182,192,36009,1,0,0:0:0:45:Snare.wav
36,192,36009,1,0,0:0:0:50:Kick.wav
402,192,36176,1,0,0:0:0:0:
256,192,36176,1,0,0:0:0:45:Snare.wav
475,192,36343,1,0,0:0:0:0:
182,192,36343,1,0,0:0:0:45:Snare.wav
36,192,36343,1,0,0:0:0:50:Kick.wav
402,192,36509,1,0,0:0:0:0:
256,192,36509,1,0,0:0:0:45:Snare.wav
475,192,36676,1,0,0:0:0:0:
182,192,36676,1,0,0:0:0:45:Snare.wav
36,192,36676,1,0,0:0:0:50:Kick.wav
402,192,36843,1,0,0:0:0:0:
256,192,36843,1,0,0:0:0:45:Snare.wav
36,192,37009,1,0,0:0:0:45:Snare.wav
402,192,37009,1,0,0:0:0:50:Kick.wav
329,192,37051,1,0,0:0:0:50:Kick.wav
256,192,37093,1,0,0:0:0:50:Kick.wav
182,192,37134,1,0,0:0:0:50:Kick.wav
475,192,37176,1,0,0:0:0:45:Snare.wav
109,192,37176,1,0,0:0:0:50:Kick.wav
329,192,37343,1,0,0:0:0:30:Crash.wav
256,192,37343,1,0,0:0:0:45:Snare.wav
36,192,37343,1,0,0:0:0:50:Kick.wav
182,192,37426,1,0,0:0:0:45:Snare.wav
109,192,37509,1,0,0:0:0:45:Snare.wav
256,192,37593,1,0,0:0:0:45:Snare.wav
475,192,37676,1,0,0:0:0:45:Snare.wav
36,192,37676,1,0,0:0:0:50:Kick.wav
402,192,37759,1,0,0:0:0:45:Snare.wav
329,192,37843,1,0,0:0:0:45:Snare.wav
475,192,37926,1,0,0:0:0:45:Snare.wav
329,192,38009,1,0,0:0:0:30:Crash.wav
256,192,38009,1,0,0:0:0:45:Snare.wav
36,192,38009,1,0,0:0:0:50:Kick.wav
182,192,38093,1,0,0:0:0:45:Snare.wav
109,192,38176,1,0,0:0:0:45:Snare.wav
256,192,38259,1,0,0:0:0:45:Snare.wav
475,192,38343,1,0,0:0:0:45:Snare.wav
36,192,38343,1,0,0:0:0:50:Kick.wav
402,192,38426,1,0,0:0:0:45:Snare.wav
329,192,38509,1,0,0:0:0:45:Snare.wav
475,192,38593,1,0,0:0:0:45:Snare.wav
182,192,38676,1,0,0:0:0:30:Crash.wav
329,192,38676,1,0,0:0:0:45:Snare.wav
36,192,38676,1,0,0:0:0:50:Kick.wav
475,192,38759,1,0,0:0:0:45:Snare.wav
256,192,38843,1,0,0:0:0:45:Snare.wav
402,192,38926,1,0,0:0:0:45:Snare.wav
182,192,39009,1,0,0:0:0:30:Crash.wav
329,192,39009,1,0,0:0:0:45:Snare.wav
36,192,39009,1,0,0:0:0:50:Kick.wav
475,192,39093,1,0,0:0:0:45:Snare.wav
256,192,39176,1,0,0:0:0:45:Snare.wav
402,192,39259,1,0,0:0:0:45:Snare.wav
256,192,39343,1,0,0:0:0:30:Crash.wav
475,192,39343,1,0,0:0:0:45:Snare.wav
36,192,39343,1,0,0:0:0:50:Kick.wav
402,192,39426,1,0,0:0:0:45:Snare.wav
182,192,39426,1,0,0:0:0:50:Kick.wav
329,192,39509,1,0,0:0:0:45:Snare.wav
109,192,39509,1,0,0:0:0:50:Kick.wav
256,192,39593,1,0,0:0:0:45:Snare.wav
36,192,39593,1,0,0:0:0:50:Kick.wav
329,192,39676,1,0,0:0:0:30:Crash.wav
475,192,39676,1,0,0:0:0:45:Snare.wav
182,192,39676,1,0,0:0:0:50:Kick.wav
402,192,39759,1,0,0:0:0:45:Snare.wav
256,192,39843,1,0,0:0:0:45:Snare.wav
109,192,39843,1,0,0:0:0:50:Kick.wav
329,192,39926,1,0,0:0:0:45:Snare.wav
256,192,40009,128,0,40593:0:0:0:0:
109,192,40009,128,0,40593:0:0:0:0:
36,192,40009,1,0,0:0:0:50:Kick.wav
402,192,40009,1,0,0:0:0:30:Crash.wav
475,192,40343,1,0,0:0:0:50:Kick.wav
402,192,40676,128,0,40926:0:0:0:0:
182,192,40676,128,0,40926:0:0:0:0:
109,192,40676,1,0,0:0:0:50:Kick.wav
475,192,41009,128,0,41259:0:0:0:0:
256,192,41009,128,0,41259:0:0:0:0:
182,192,41009,1,0,0:0:0:50:Kick.wav
402,192,41343,128,0,41509:0:0:0:0:
182,192,41343,128,0,41509:0:0:0:0:
256,192,41343,1,0,0:0:0:50:Kick.wav
402,192,41593,1,0,0:0:0:0:
182,192,41593,1,0,0:0:0:0:
475,192,41676,128,2,41843:0:0:0:0:
256,192,41676,128,2,41843:0:0:0:0:
36,192,41676,1,0,0:0:0:50:Kick.wav
256,192,41926,1,0,0:0:0:0:
475,192,41926,1,0,0:0:0:0:
402,192,42009,128,2,42259:0:0:0:0:
182,192,42009,128,2,42259:0:0:0:0:
36,192,42009,1,0,0:0:0:50:Kick.wav
36,192,42176,1,0,0:0:0:50:Kick.wav
475,192,42343,128,0,42593:0:0:0:0:
256,192,42343,128,0,42593:0:0:0:0:
109,192,42343,1,0,0:0:0:50:Kick.wav
109,192,42509,1,0,0:0:0:50:Kick.wav
475,192,42676,128,0,43259:0:0:0:0:
329,192,42676,128,0,43259:0:0:0:0:
256,192,42676,1,0,0:0:0:50:Kick.wav
182,192,43009,1,0,0:0:0:50:Kick.wav
256,192,43343,128,0,43593:0:0:0:0:
109,192,43343,128,0,43593:0:0:0:0:
475,192,43343,1,0,0:0:0:50:Kick.wav
329,192,43676,128,0,43926:0:0:0:0:
182,192,43676,128,0,43926:0:0:0:0:
402,192,43676,1,0,0:0:0:50:Kick.wav
475,192,44009,128,0,44259:0:0:0:0:
256,192,44009,128,0,44259:0:0:0:0:
182,192,44009,1,0,0:0:0:50:Kick.wav
402,192,44343,128,0,44593:0:0:0:0:
182,192,44343,128,0,44593:0:0:0:0:
36,192,44343,1,0,0:0:0:50:Kick.wav
475,192,44676,128,0,45259:0:0:0:0:
256,192,44676,128,0,45259:0:0:0:0:
182,192,44676,1,0,0:0:0:50:Kick.wav
36,192,44759,1,0,0:0:0:50:Kick.wav
182,192,44843,1,0,0:0:0:50:Kick.wav
36,192,44926,1,0,0:0:0:50:Kick.wav
182,192,45009,1,0,0:0:0:50:Kick.wav
36,192,45176,1,0,0:0:0:50:Kick.wav
402,192,45343,128,0,45926:0:0:0:0:
182,192,45343,128,0,45926:0:0:0:0:
36,192,45343,1,0,0:0:0:50:Kick.wav
256,192,45343,1,0,0:0:0:30:Crash.wav
109,192,45676,1,0,0:0:0:50:Kick.wav
329,192,46009,128,0,46259:0:0:0:0:
109,192,46009,128,0,46259:0:0:0:0:
36,192,46009,1,0,0:0:0:50:Kick.wav
402,192,46343,128,0,46593:0:0:0:0:
182,192,46343,128,0,46593:0:0:0:0:
109,192,46343,1,0,0:0:0:50:Kick.wav
329,192,46676,128,0,46843:0:0:0:0:
475,192,46676,128,0,46843:0:0:0:0:
36,192,46676,1,0,0:0:0:50:Kick.wav
182,192,46676,1,0,0:0:0:30:Crash.wav
475,192,46926,1,0,0:0:0:0:
329,192,46926,1,0,0:0:0:0:
256,192,47009,128,2,47176:0:0:0:0:
109,192,47009,128,2,47176:0:0:0:0:
402,192,47009,1,0,0:0:0:50:Kick.wav
109,192,47259,1,0,0:0:0:0:
256,192,47259,1,0,0:0:0:0:
329,192,47343,128,2,47593:0:0:0:0:
475,192,47343,128,2,47593:0:0:0:0:
182,192,47343,1,0,0:0:0:50:Kick.wav
36,192,47676,128,0,47926:0:0:0:0:
182,192,47676,128,0,47926:0:0:0:0:
475,192,47676,1,0,0:0:0:50:Kick.wav
402,192,47718,1,0,0:0:0:50:Kick.wav
329,192,47759,1,0,0:0:0:50:Kick.wav
256,192,47801,1,0,0:0:0:50:Kick.wav
475,192,47843,1,0,0:0:0:50:Kick.wav
256,192,48009,128,0,48593:0:0:0:0:
402,192,48009,128,0,48593:0:0:0:0:
36,192,48009,1,0,0:0:0:50:Kick.wav
182,192,48009,1,0,0:0:0:30:Crash.wav
109,192,48343,1,0,0:0:0:50:Kick.wav
182,192,48676,128,0,48926:0:0:0:0:
329,192,48676,128,0,48926:0:0:0:0:
36,192,48676,1,0,0:0:0:50:Kick.wav
256,192,48676,1,0,0:0:0:30:Crash.wav
256,192,49009,128,0,49259:0:0:0:0:
402,192,49009,128,0,49259:0:0:0:0:
109,192,49009,1,0,0:0:0:50:Kick.wav
182,192,49343,128,0,49759:0:0:0:0:
475,192,49343,128,0,49759:0:0:0:0:
36,192,49343,1,0,0:0:0:50:Kick.wav
402,192,49343,1,0,0:0:0:30:Crash.wav
402,192,49676,1,0,0:0:0:30:Crash.wav
36,192,49676,1,0,0:0:0:50:Kick.wav
182,192,49843,1,0,0:0:0:0:
475,192,49843,1,0,0:0:0:0:
109,192,49926,1,0,0:0:0:0:
402,192,49926,1,0,0:0:0:0:
329,192,50009,128,0,50259:0:0:0:0:
475,192,50009,128,0,50259:0:0:0:0:
36,192,50009,1,0,0:0:0:50:Kick.wav
256,192,50009,1,0,0:0:0:30:Crash.wav
182,192,50093,1,0,0:0:0:50:Kick.wav
109,192,50176,1,0,0:0:0:50:Kick.wav
36,192,50259,1,0,0:0:0:50:Kick.wav
109,192,50343,128,0,50509:0:0:0:0:
475,192,50343,128,0,50509:0:0:0:0:
329,192,50343,1,0,0:0:0:50:Kick.wav
256,192,50343,1,0,0:0:0:30:Crash.wav
402,192,50509,1,0,0:0:0:0:
182,192,50509,1,0,0:0:0:50:Kick.wav
329,192,50593,1,0,0:0:0:0:
109,192,50593,1,0,0:0:0:0:
256,192,50676,1,0,0:0:0:0:
475,192,50676,1,0,0:0:0:30:Crash.wav
36,192,50676,1,0,0:0:0:50:Kick.wav
329,192,50759,1,0,0:0:0:0:
402,192,50843,1,0,0:0:0:0:
475,192,50926,1,0,0:0:0:0:
182,192,51009,1,0,0:0:0:0:
36,192,51009,1,0,0:0:0:50:Kick.wav
256,192,51093,1,0,0:0:0:0:
329,192,51176,1,0,0:0:0:0:
402,192,51259,1,0,0:0:0:0:
256,192,51343,1,0,0:0:0:0:
109,192,51343,1,0,0:0:0:50:Kick.wav
329,192,51426,1,0,0:0:0:0:
402,192,51509,1,0,0:0:0:0:
475,192,51593,1,0,0:0:0:0:
182,192,51676,1,0,0:0:0:0:
36,192,51676,1,0,0:0:0:50:Kick.wav
256,192,51759,1,0,0:0:0:0:
329,192,51843,1,0,0:0:0:0:
402,192,51926,1,0,0:0:0:0:
256,192,52009,1,0,0:0:0:0:
109,192,52009,1,0,0:0:0:50:Kick.wav
329,192,52093,1,0,0:0:0:0:
402,192,52176,1,0,0:0:0:0:
475,192,52259,1,0,0:0:0:0:
182,192,52343,1,0,0:0:0:0:
36,192,52343,1,0,0:0:0:50:Kick.wav
256,192,52426,1,0,0:0:0:0:
329,192,52509,1,0,0:0:0:0:
402,192,52593,1,0,0:0:0:0:
256,192,52676,1,0,0:0:0:0:
109,192,52676,1,0,0:0:0:50:Kick.wav
182,192,52759,1,0,0:0:0:0:
475,192,52843,1,0,0:0:0:0:
329,192,52843,1,0,0:0:0:50:Kick.wav
402,192,52926,1,0,0:0:0:0:
182,192,53009,1,0,0:0:0:0:
36,192,53009,1,0,0:0:0:50:Kick.wav
109,192,53093,1,0,0:0:0:0:
402,192,53176,1,0,0:0:0:0:
256,192,53176,1,0,0:0:0:50:Kick.wav
329,192,53259,1,0,0:0:0:0:
182,192,53343,1,0,0:0:0:0:
36,192,53343,1,0,0:0:0:50:Kick.wav
475,192,53426,1,0,0:0:0:0:
329,192,53509,1,0,0:0:0:0:
329,192,53593,1,0,0:0:0:0:
182,192,53676,1,0,0:0:0:0:
36,192,53676,1,0,0:0:0:50:Kick.wav
475,192,53759,1,0,0:0:0:0:
329,192,53843,1,0,0:0:0:0:
329,192,53926,1,0,0:0:0:0:
182,192,54009,1,0,0:0:0:0:
36,192,54009,1,0,0:0:0:50:Kick.wav
475,192,54093,1,0,0:0:0:0:
329,192,54176,1,0,0:0:0:0:
329,192,54259,1,0,0:0:0:0:
182,192,54343,1,0,0:0:0:0:
36,192,54343,1,0,0:0:0:50:Kick.wav
475,192,54426,1,0,0:0:0:0:
329,192,54509,1,0,0:0:0:0:
329,192,54593,1,0,0:0:0:0:
256,192,54676,1,0,0:0:0:0:
36,192,54676,1,0,0:0:0:50:Kick.wav
182,192,54759,1,0,0:0:0:0:
402,192,54843,1,0,0:0:0:0:
402,192,54926,1,0,0:0:0:0:
256,192,55009,1,0,0:0:0:0:
36,192,55009,1,0,0:0:0:50:Kick.wav
182,192,55093,1,0,0:0:0:0:
402,192,55176,1,0,0:0:0:0:
402,192,55259,1,0,0:0:0:0:
256,192,55343,1,0,0:0:0:0:
109,192,55343,1,0,0:0:0:50:Kick.wav
182,192,55426,1,0,0:0:0:0:
36,192,55426,1,0,0:0:0:50:Kick.wav
402,192,55509,1,0,0:0:0:0:
256,192,55509,1,0,0:0:0:50:Kick.wav
402,192,55593,1,0,0:0:0:0:
109,192,55593,1,0,0:0:0:50:Kick.wav
329,192,55676,1,0,0:0:0:0:
36,192,55676,1,0,0:0:0:50:Kick.wav
182,192,55759,1,0,0:0:0:0:
402,192,55843,1,0,0:0:0:0:
109,192,55843,1,0,0:0:0:50:Kick.wav
402,192,55926,1,0,0:0:0:0:
475,192,56009,1,0,0:0:0:0:
256,192,56009,1,0,0:0:0:30:Crash.wav
36,192,56009,1,0,0:0:0:50:Kick.wav
329,192,56093,1,0,0:0:0:0:
182,192,56176,1,0,0:0:0:0:
475,192,56259,1,0,0:0:0:0:
475,192,56343,1,0,0:0:0:0:
36,192,56343,1,0,0:0:0:50:Kick.wav
329,192,56426,1,0,0:0:0:0:
182,192,56509,1,0,0:0:0:0:
475,192,56593,1,0,0:0:0:0:
475,192,56676,1,0,0:0:0:0:
36,192,56676,1,0,0:0:0:50:Kick.wav
329,192,56759,1,0,0:0:0:0:
182,192,56843,1,0,0:0:0:0:
475,192,56926,1,0,0:0:0:0:
475,192,57009,1,0,0:0:0:0:
36,192,57009,1,0,0:0:0:50:Kick.wav
329,192,57093,1,0,0:0:0:0:
182,192,57176,1,0,0:0:0:0:
475,192,57259,1,0,0:0:0:0:
36,192,57343,1,0,0:0:0:0:
256,192,57343,1,0,0:0:0:30:Crash.wav
475,192,57343,1,0,0:0:0:50:Kick.wav
182,192,57426,1,0,0:0:0:0:
329,192,57509,1,0,0:0:0:0:
36,192,57593,1,0,0:0:0:0:
36,192,57676,1,0,0:0:0:0:
475,192,57676,1,0,0:0:0:50:Kick.wav
182,192,57759,1,0,0:0:0:0:
329,192,57843,1,0,0:0:0:0:
36,192,57926,1,0,0:0:0:0:
36,192,58009,1,0,0:0:0:0:
475,192,58009,1,0,0:0:0:50:Kick.wav
182,192,58093,1,0,0:0:0:0:
329,192,58176,1,0,0:0:0:0:
36,192,58259,1,0,0:0:0:0:
475,192,58343,1,0,0:0:0:0:
329,192,58343,1,0,0:0:0:50:Kick.wav
256,192,58384,1,0,0:0:0:50:Kick.wav
182,192,58426,1,0,0:0:0:50:Kick.wav
109,192,58468,1,0,0:0:0:50:Kick.wav
402,192,58509,1,0,0:0:0:0:
36,192,58509,1,0,0:0:0:50:Kick.wav
475,192,58676,1,0,0:0:0:0:
256,192,58676,1,0,0:0:0:30:Crash.wav
36,192,58676,1,0,0:0:0:50:Kick.wav
329,192,58759,1,0,0:0:0:0:
475,192,58843,1,0,0:0:0:0:
182,192,58926,1,0,0:0:0:0:
475,192,59009,1,0,0:0:0:0:
36,192,59009,1,0,0:0:0:50:Kick.wav
329,192,59093,1,0,0:0:0:0:
475,192,59176,1,0,0:0:0:0:
182,192,59259,1,0,0:0:0:0:
402,192,59343,1,0,0:0:0:0:
256,192,59343,1,0,0:0:0:30:Crash.wav
36,192,59343,1,0,0:0:0:50:Kick.wav
109,192,59426,1,0,0:0:0:0:
402,192,59509,1,0,0:0:0:0:
109,192,59593,1,0,0:0:0:0:
475,192,59676,1,0,0:0:0:0:
36,192,59676,1,0,0:0:0:50:Kick.wav
182,192,59759,1,0,0:0:0:0:
475,192,59843,1,0,0:0:0:0:
182,192,59926,1,0,0:0:0:0:
329,192,60009,1,0,0:0:0:0:
329,192,60093,1,0,0:0:0:0:
475,192,60176,1,0,0:0:0:0:
256,192,60176,1,0,0:0:0:30:Crash.wav
36,192,60176,1,0,0:0:0:50:Kick.wav
109,192,60259,1,0,0:0:0:0:
402,192,60343,1,0,0:0:0:0:
402,192,60426,1,0,0:0:0:0:
475,192,60509,1,0,0:0:0:0:
256,192,60509,1,0,0:0:0:30:Crash.wav
36,192,60509,1,0,0:0:0:50:Kick.wav
182,192,60593,1,0,0:0:0:0:
475,192,60676,1,0,0:0:0:0:
256,192,60676,1,0,0:0:0:30:Crash.wav
36,192,60676,1,0,0:0:0:50:Kick.wav
475,192,60759,1,0,0:0:0:0:
256,192,60843,1,0,0:0:0:0:
402,192,60926,1,0,0:0:0:0:
182,192,61009,1,0,0:0:0:0:
36,192,61009,1,0,0:0:0:50:Kick.wav
402,192,61093,1,0,0:0:0:0:
256,192,61093,1,0,0:0:0:50:Kick.wav
182,192,61176,1,0,0:0:0:0:
36,192,61176,1,0,0:0:0:50:Kick.wav
402,192,61259,1,0,0:0:0:0:
256,192,61259,1,0,0:0:0:50:Kick.wav
475,192,61343,128,0,61926:0:0:0:0:
329,192,61343,1,0,0:0:0:0:
36,192,61343,1,0,0:0:0:50:Kick.wav
182,192,61343,1,0,0:0:0:30:Crash.wav
109,192,61509,1,0,0:0:0:0:
256,192,61509,1,0,0:0:0:30:Hats.wav
182,192,61676,1,0,0:0:0:0:
36,192,61676,1,0,0:0:0:50:Kick.wav
256,192,61843,1,0,0:0:0:0:
402,192,61843,1,0,0:0:0:30:Hats.wav
182,192,62009,1,0,0:0:0:0:
329,192,62009,128,0,62259:0:0:0:0:
36,192,62009,1,0,0:0:0:50:Kick.wav
109,192,62176,1,0,0:0:0:0:
256,192,62176,1,0,0:0:0:30:Hats.wav
182,192,62343,1,0,0:0:0:0:
109,192,62343,128,0,62593:0:0:0:0:
329,192,62343,1,0,0:0:0:50:Kick.wav
475,192,62343,1,0,0:0:0:0:
36,192,62509,1,0,0:0:0:0:
402,192,62509,1,0,0:0:0:0:
256,192,62509,1,0,0:0:0:30:Hats.wav
329,192,62676,1,0,0:0:0:0:
402,192,62676,128,0,62843:0:0:0:0:
109,192,62676,1,0,0:0:0:50:Kick.wav
36,192,62843,1,0,0:0:0:0:
256,192,62843,1,0,0:0:0:30:Hats.wav
402,192,62926,1,0,0:0:0:0:
475,192,63009,1,0,0:0:0:0:
182,192,63009,1,0,0:0:0:0:
329,192,63009,1,0,0:0:0:50:Kick.wav
109,192,63009,128,0,63176:0:0:0:0:
475,192,63176,1,0,0:0:0:0:
256,192,63176,1,0,0:0:0:30:Hats.wav
109,192,63259,1,0,0:0:0:0:
329,192,63343,1,0,0:0:0:0:
182,192,63343,1,0,0:0:0:0:
36,192,63343,1,0,0:0:0:50:Kick.wav
402,192,63343,128,0,63926:0:0:0:0:
256,192,63509,1,0,0:0:0:0:
475,192,63509,1,0,0:0:0:30:Hats.wav
109,192,63509,1,0,0:0:0:50:Kick.wav
182,192,63676,1,0,0:0:0:0:
36,192,63676,1,0,0:0:0:50:Kick.wav
256,192,63843,1,0,0:0:0:0:
475,192,63843,1,0,0:0:0:30:Hats.wav
109,192,63843,1,0,0:0:0:50:Kick.wav
402,192,64009,1,0,0:0:0:0:
475,192,64009,128,0,64593:0:0:0:0:
36,192,64009,1,0,0:0:0:50:Kick.wav
109,192,64176,1,0,0:0:0:0:
256,192,64176,1,0,0:0:0:30:Hats.wav
329,192,64343,1,0,0:0:0:0:
182,192,64343,1,0,0:0:0:50:Kick.wav
36,192,64509,1,0,0:0:0:0:
402,192,64509,1,0,0:0:0:30:Hats.wav
109,192,64676,1,0,0:0:0:0:
256,192,64676,128,0,64926:0:0:0:0:
475,192,64676,1,0,0:0:0:50:Kick.wav
182,192,64843,1,0,0:0:0:0:
402,192,64843,1,0,0:0:0:30:Hats.wav
256,192,65009,1,0,0:0:0:0:
36,192,65009,128,0,65259:0:0:0:0:
475,192,65009,1,0,0:0:0:50:Kick.wav
182,192,65176,1,0,0:0:0:0:
402,192,65176,1,0,0:0:0:30:Hats.wav
109,192,65343,1,0,0:0:0:0:
256,192,65343,128,0,65509:0:0:0:0:
329,192,65343,1,0,0:0:0:50:Kick.wav
36,192,65509,1,0,0:0:0:0:
402,192,65509,1,0,0:0:0:30:Hats.wav
182,192,65593,1,0,0:0:0:0:
329,192,65676,1,0,0:0:0:0:
475,192,65676,128,0,65843:0:0:0:0:
36,192,65676,1,0,0:0:0:50:Kick.wav
109,192,65843,1,0,0:0:0:0:
329,192,65843,1,0,0:0:0:30:Hats.wav
182,192,65926,1,0,0:0:0:0:
402,192,66009,1,0,0:0:0:0:
256,192,66009,128,0,66259:0:0:0:0:
36,192,66009,1,0,0:0:0:50:Kick.wav
182,192,66093,1,0,0:0:0:50:Kick.wav
475,192,66176,1,0,0:0:0:0:
329,192,66176,1,0,0:0:0:30:Hats.wav
36,192,66176,1,0,0:0:0:50:Kick.wav
182,192,66259,1,0,0:0:0:50:Kick.wav
402,192,66343,1,0,0:0:0:0:
109,192,66343,128,0,66593:0:0:0:0:
256,192,66343,1,0,0:0:0:50:Kick.wav
182,192,66509,1,0,0:0:0:0:
329,192,66509,1,0,0:0:0:30:Hats.wav
36,192,66509,1,0,0:0:0:50:Kick.wav
182,192,66676,128,0,67259:0:0:0:0:
402,192,66676,1,0,0:0:0:0:
256,192,66676,1,0,0:0:0:30:Crash.wav
36,192,66676,1,0,0:0:0:50:Kick.wav
109,192,66676,1,0,0:0:0:45:Snare.wav
329,192,66843,1,0,0:0:0:0:
475,192,66843,1,0,0:0:0:45:Snare.wav
256,192,67009,1,0,0:0:0:0:
402,192,67009,1,0,0:0:0:45:Snare.wav
36,192,67009,1,0,0:0:0:50:Kick.wav
329,192,67176,1,0,0:0:0:0:
475,192,67176,1,0,0:0:0:45:Snare.wav
329,192,67343,128,0,67593:0:0:0:0:
402,192,67343,1,0,0:0:0:0:
36,192,67343,1,0,0:0:0:50:Kick.wav
182,192,67343,1,0,0:0:0:45:Snare.wav
109,192,67509,1,0,0:0:0:0:
256,192,67509,1,0,0:0:0:45:Snare.wav
402,192,67676,128,0,67926:0:0:0:0:
329,192,67676,1,0,0:0:0:0:
182,192,67676,1,0,0:0:0:50:Kick.wav
475,192,67676,1,0,0:0:0:45:Snare.wav
109,192,67843,1,0,0:0:0:0:
256,192,67843,1,0,0:0:0:45:Snare.wav
182,192,68009,128,0,68259:0:0:0:0:
256,192,68009,1,0,0:0:0:0:
402,192,68009,1,0,0:0:0:30:Crash.wav
36,192,68009,1,0,0:0:0:50:Kick.wav
475,192,68009,1,0,0:0:0:45:Snare.wav
109,192,68176,1,0,0:0:0:0:
329,192,68176,1,0,0:0:0:45:Snare.wav
36,192,68343,128,0,68593:0:0:0:0:
182,192,68343,1,0,0:0:0:0:
402,192,68343,1,0,0:0:0:50:Kick.wav
475,192,68343,1,0,0:0:0:45:Snare.wav
109,192,68509,1,0,0:0:0:0:
329,192,68509,1,0,0:0:0:45:Snare.wav
182,192,68676,128,0,68926:0:0:0:0:
256,192,68676,1,0,0:0:0:0:
36,192,68676,1,0,0:0:0:50:Kick.wav
475,192,68676,1,0,0:0:0:45:Snare.wav
109,192,68843,1,0,0:0:0:0:
329,192,68843,1,0,0:0:0:45:Snare.wav
475,192,69009,1,0,0:0:0:45:Snare.wav
329,192,69009,1,0,0:0:0:50:Kick.wav
256,192,69051,1,0,0:0:0:50:Kick.wav
182,192,69093,1,0,0:0:0:50:Kick.wav
109,192,69134,1,0,0:0:0:50:Kick.wav
402,192,69176,1,0,0:0:0:45:Snare.wav
36,192,69176,1,0,0:0:0:50:Kick.wav
256,192,69343,1,0,0:0:0:30:Crash.wav
475,192,69343,1,0,0:0:0:45:Snare.wav
109,192,69343,1,0,0:0:0:50:Kick.wav
402,192,69426,1,0,0:0:0:45:Snare.wav
329,192,69509,1,0,0:0:0:45:Snare.wav
475,192,69593,1,0,0:0:0:45:Snare.wav
182,192,69676,1,0,0:0:0:45:Snare.wav
36,192,69676,1,0,0:0:0:50:Kick.wav
256,192,69759,1,0,0:0:0:45:Snare.wav
329,192,69843,1,0,0:0:0:45:Snare.wav
109,192,69926,1,0,0:0:0:45:Snare.wav
256,192,70009,1,0,0:0:0:30:Crash.wav
36,192,70009,1,0,0:0:0:45:Snare.wav
402,192,70009,1,0,0:0:0:50:Kick.wav
109,192,70093,1,0,0:0:0:45:Snare.wav
182,192,70176,1,0,0:0:0:45:Snare.wav
36,192,70259,1,0,0:0:0:45:Snare.wav
329,192,70343,1,0,0:0:0:45:Snare.wav
475,192,70343,1,0,0:0:0:50:Kick.wav
256,192,70426,1,0,0:0:0:45:Snare.wav
182,192,70509,1,0,0:0:0:45:Snare.wav
329,192,70593,1,0,0:0:0:45:Snare.wav
256,192,70676,1,0,0:0:0:30:Crash.wav
475,192,70676,1,0,0:0:0:45:Snare.wav
36,192,70676,1,0,0:0:0:50:Kick.wav
109,192,70759,1,0,0:0:0:45:Snare.wav
402,192,70843,1,0,0:0:0:45:Snare.wav
402,192,70926,1,0,0:0:0:45:Snare.wav
329,192,71009,1,0,0:0:0:30:Crash.wav
475,192,71009,1,0,0:0:0:45:Snare.wav
109,192,71009,1,0,0:0:0:50:Kick.wav
182,192,71093,1,0,0:0:0:45:Snare.wav
402,192,71176,1,0,0:0:0:45:Snare.wav
402,192,71259,1,0,0:0:0:45:Snare.wav
475,192,71343,1,0,0:0:0:45:Snare.wav
329,192,71343,1,0,0:0:0:30:Crash.wav
109,192,71343,1,0,0:0:0:50:Kick.wav
329,192,71676,128,0,71926:0:0:0:0:
182,192,71676,128,0,71926:0:0:0:0:
475,192,71926,1,0,0:0:0:0:
36,192,71926,1,0,0:0:0:0:
109,192,72009,128,0,72593:0:0:0:0:
402,192,72009,128,0,72593:0:0:0:0:
36,192,72676,128,0,72926:0:0:0:0:
329,192,72676,128,2,72926:0:0:0:0:
475,192,73009,128,2,73259:0:0:0:0:
182,192,73009,128,0,73259:0:0:0:0:
475,192,73343,1,0,0:0:0:45:Wub.wav
182,192,73343,1,0,0:0:0:0:
475,192,73454,1,0,0:0:0:45:Wub.wav
182,192,73454,1,0,0:0:0:0:
475,192,73565,1,0,0:0:0:45:Wub.wav
182,192,73565,1,0,0:0:0:0:
36,192,73676,1,0,0:0:0:0:
329,192,73676,1,0,0:0:0:45:Wub.wav
475,192,73787,1,0,0:0:0:45:Wub.wav
182,192,73787,1,0,0:0:0:0:
475,192,73898,1,0,0:0:0:45:Wub.wav
182,192,73898,1,0,0:0:0:0:
329,192,74009,128,2,74259:0:0:0:0:
36,192,74009,128,0,74259:0:0:0:0:
402,192,74343,128,2,74593:0:0:0:0:
109,192,74343,128,0,74593:0:0:0:0:
475,192,74676,128,2,75259:0:0:0:0:
182,192,74676,128,0,75259:0:0:0:0:
329,192,75343,128,2,75593:0:0:0:0:
36,192,75343,128,0,75593:0:0:0:0:
402,192,75676,128,2,75926:0:0:0:0:
109,192,75676,128,0,75926:0:0:0:0:
109,192,76009,1,0,0:0:0:0:
402,192,76009,1,0,0:0:0:45:Wub.wav
402,192,76121,1,0,0:0:0:45:Wub.wav
109,192,76121,1,0,0:0:0:0:
402,192,76232,1,0,0:0:0:45:Wub.wav
109,192,76232,1,0,0:0:0:0:
182,192,76343,1,0,0:0:0:0:
329,192,76343,1,0,0:0:0:45:Wub.wav
402,192,76454,1,0,0:0:0:45:Wub.wav
109,192,76454,1,0,0:0:0:0:
402,192,76565,1,0,0:0:0:45:Wub.wav
109,192,76565,1,0,0:0:0:0:
36,192,76676,128,0,77259:0:0:0:0:
475,192,76676,128,2,77259:0:0:0:0:
182,192,77343,128,0,77926:0:0:0:0:
329,192,77343,128,2,77926:0:0:0:0:
329,192,78009,1,0,0:0:0:45:Wub.wav
182,192,78009,1,0,0:0:0:0:
182,192,78121,1,0,0:0:0:0:
329,192,78121,1,0,0:0:0:45:Wub.wav
182,192,78232,1,0,0:0:0:0:
329,192,78232,1,0,0:0:0:45:Wub.wav
475,192,78343,1,0,0:0:0:45:Wub.wav
36,192,78343,1,0,0:0:0:0:
182,192,78454,1,0,0:0:0:0:
329,192,78454,1,0,0:0:0:45:Wub.wav
182,192,78565,1,0,0:0:0:0:
329,192,78565,1,0,0:0:0:45:Wub.wav
36,192,78676,1,0,0:0:0:0:
475,192,78676,1,0,0:0:0:45:Wub.wav
36,192,78787,1,0,0:0:0:0:
475,192,78787,1,0,0:0:0:45:Wub.wav
475,192,78898,1,0,0:0:0:45:Wub.wav
36,192,78898,1,0,0:0:0:0:
329,192,79009,1,0,0:0:0:45:Wub.wav
182,192,79009,1,0,0:0:0:0:
36,192,79121,1,0,0:0:0:0:
475,192,79121,1,0,0:0:0:45:Wub.wav
36,192,79232,1,0,0:0:0:0:
475,192,79232,1,0,0:0:0:45:Wub.wav
182,192,79343,128,0,79593:0:0:0:0:
402,192,79343,128,2,79593:0:0:0:0:
109,192,79676,128,0,79926:0:0:0:0:
329,192,79676,128,2,79926:0:0:0:0:
256,192,80009,128,2,80343:0:0:0:0:
36,192,80009,128,0,80343:0:0:0:0:
475,192,80343,1,0,0:0:0:45:Wub.wav
329,192,80343,1,0,0:0:0:0:
475,192,80454,1,0,0:0:0:45:Wub.wav
329,192,80454,1,0,0:0:0:0:
475,192,80565,1,0,0:0:0:45:Wub.wav
329,192,80565,1,0,0:0:0:0:
256,192,80676,128,2,80926:0:0:0:0:
109,192,80676,128,0,80926:0:0:0:0:
475,192,81009,128,2,81259:0:0:0:0:
329,192,81009,128,0,81259:0:0:0:0:
475,192,81343,1,0,0:0:0:45:Wub.wav
329,192,81343,1,0,0:0:0:0:
329,192,81454,1,0,0:0:0:0:
475,192,81454,1,0,0:0:0:45:Wub.wav
329,192,81565,1,0,0:0:0:0:
475,192,81565,1,0,0:0:0:45:Wub.wav
36,192,81676,1,0,0:0:0:0:
182,192,81676,1,0,0:0:0:45:Wub.wav
475,192,81787,1,0,0:0:0:45:Wub.wav
329,192,81787,1,0,0:0:0:0:
475,192,81898,1,0,0:0:0:45:Wub.wav
329,192,81898,1,0,0:0:0:0:
329,192,82009,128,2,82259:0:0:0:0:
109,192,82009,128,0,82259:0:0:0:0:
256,192,82343,128,2,82593:0:0:0:0:
36,192,82343,128,0,82593:0:0:0:0:
182,192,82676,1,0,0:0:0:0:
329,192,82759,1,2,0:0:0:0:
475,192,82843,1,0,0:0:0:0:
475,192,82926,1,0,0:0:0:0:
109,192,83009,1,0,0:0:0:0:
256,192,83093,1,2,0:0:0:0:
402,192,83176,1,0,0:0:0:0:
402,192,83259,1,0,0:0:0:0:
182,192,83343,1,0,0:0:0:0:
329,192,83426,1,2,0:0:0:0:
475,192,83509,1,0,0:0:0:0:
475,192,83593,1,0,0:0:0:0:
109,192,83676,1,0,0:0:0:0:
256,192,83759,1,2,0:0:0:0:
402,192,83843,1,0,0:0:0:0:
402,192,83926,1,0,0:0:0:0:
329,192,84009,1,0,0:0:0:0:
182,192,84093,1,2,0:0:0:0:
36,192,84176,1,0,0:0:0:0:
36,192,84259,1,0,0:0:0:0:
402,192,84343,1,0,0:0:0:0:
256,192,84426,1,2,0:0:0:0:
109,192,84509,1,0,0:0:0:0:
109,192,84593,1,0,0:0:0:0:
329,192,84676,1,0,0:0:0:0:
182,192,84759,1,2,0:0:0:0:
36,192,84843,1,0,0:0:0:0:
36,192,84926,1,0,0:0:0:0:
402,192,85009,1,0,0:0:0:0:
256,192,85093,1,2,0:0:0:0:
109,192,85176,1,0,0:0:0:0:
109,192,85259,1,0,0:0:0:0:
475,192,85343,1,0,0:0:0:0:
182,192,85426,1,2,0:0:0:0:
402,192,85509,1,0,0:0:0:0:
402,192,85593,1,0,0:0:0:0:
329,192,85676,1,0,0:0:0:0:
36,192,85759,1,2,0:0:0:0:
256,192,85843,1,0,0:0:0:0:
256,192,85926,1,0,0:0:0:0:
475,192,86009,1,0,0:0:0:0:
182,192,86093,1,2,0:0:0:0:
402,192,86176,1,0,0:0:0:0:
402,192,86259,1,0,0:0:0:0:
329,192,86343,1,0,0:0:0:0:
36,192,86426,1,2,0:0:0:0:
256,192,86509,1,0,0:0:0:0:
256,192,86593,1,0,0:0:0:0:
475,192,86676,1,0,0:0:0:0:
329,192,86759,1,2,0:0:0:0:
109,192,86843,1,0,0:0:0:0:
109,192,86926,1,0,0:0:0:0:
402,192,87009,1,0,0:0:0:0:
256,192,87093,1,2,0:0:0:0:
36,192,87176,1,0,0:0:0:0:
36,192,87259,1,0,0:0:0:0:
475,192,87343,1,0,0:0:0:0:
329,192,87426,1,2,0:0:0:0:
109,192,87509,1,0,0:0:0:0:
109,192,87593,1,0,0:0:0:0:
402,192,87676,1,0,0:0:0:0:
256,192,87759,1,2,0:0:0:0:
36,192,87843,1,0,0:0:0:0:
36,192,87926,1,0,0:0:0:0:
256,192,88009,5,0,0:0:0:30:Crash.wav
109,192,88009,1,0,0:0:0:0:
475,192,88093,1,2,0:0:0:0:
402,192,88176,1,0,0:0:0:0:
329,192,88259,1,0,0:0:0:0:
36,192,88343,1,0,0:0:0:0:
402,192,88426,1,2,0:0:0:0:
329,192,88509,1,0,0:0:0:0:
256,192,88593,1,0,0:0:0:0:
402,192,88676,1,0,0:0:0:0:
36,192,88759,1,2,0:0:0:0:
109,192,88843,1,0,0:0:0:0:
182,192,88926,1,0,0:0:0:0:
475,192,89009,1,0,0:0:0:0:
109,192,89093,1,2,0:0:0:0:
182,192,89176,1,0,0:0:0:0:
256,192,89259,1,0,0:0:0:0:
109,192,89343,1,0,0:0:0:0:
475,192,89343,1,0,0:0:0:30:Crash.wav
329,192,89426,1,2,0:0:0:0:
182,192,89509,1,0,0:0:0:0:
182,192,89593,1,0,0:0:0:0:
36,192,89676,1,0,0:0:0:0:
256,192,89759,1,2,0:0:0:0:
36,192,89843,1,0,0:0:0:0:
36,192,89926,1,0,0:0:0:0:
402,192,90009,1,0,0:0:0:0:
182,192,90093,1,2,0:0:0:0:
329,192,90176,1,0,0:0:0:0:
329,192,90259,1,0,0:0:0:0:
475,192,90343,1,0,0:0:0:0:
256,192,90426,1,2,0:0:0:0:
402,192,90509,1,0,0:0:0:0:
402,192,90593,1,0,0:0:0:0:
182,192,90676,1,0,0:0:0:0:
36,192,90676,1,0,0:0:0:30:Crash.wav
329,192,90759,1,2,0:0:0:0:
475,192,90843,1,0,0:0:0:0:
256,192,90926,1,0,0:0:0:0:
36,192,91009,1,0,0:0:0:0:
182,192,91093,1,2,0:0:0:0:
329,192,91176,1,0,0:0:0:0:
109,192,91259,1,0,0:0:0:0:
329,192,91343,1,0,0:0:0:0:
475,192,91343,1,0,0:0:0:30:Crash.wav
182,192,91426,1,2,0:0:0:0:
36,192,91509,1,0,0:0:0:0:
256,192,91593,1,0,0:0:0:0:
475,192,91676,1,0,0:0:0:0:
329,192,91759,1,2,0:0:0:0:
182,192,91843,1,0,0:0:0:0:
402,192,91926,1,0,0:0:0:0:
36,192,92009,1,0,0:0:0:0:
256,192,92009,1,0,0:0:0:30:Crash.wav
182,192,92093,1,2,0:0:0:0:
329,192,92176,1,0,0:0:0:0:
475,192,92259,1,0,0:0:0:0:
256,192,92343,5,0,0:0:0:30:Crash.wav
36,192,92343,1,0,0:0:0:0:
182,192,92426,1,2,0:0:0:0:
329,192,92509,1,0,0:0:0:0:
475,192,92593,1,0,0:0:0:0:
329,192,92676,1,2,0:0:0:0:
36,192,92676,1,0,0:0:0:25:Snare.wav
256,192,92676,1,0,0:0:0:30:Crash.wav
475,192,92759,1,2,0:0:0:0:
182,192,92759,1,0,0:0:0:25:Snare.wav
36,192,92843,1,0,0:0:0:25:Snare.wav
329,192,92843,1,2,0:0:0:0:
182,192,92926,1,0,0:0:0:25:Snare.wav
475,192,92926,1,2,0:0:0:0:
329,192,93009,1,2,0:0:0:0:
109,192,93009,1,0,0:0:0:25:Snare.wav
256,192,93093,1,2,0:0:0:0:
36,192,93093,1,0,0:0:0:25:Snare.wav
402,192,93176,1,2,0:0:0:0:
182,192,93176,1,0,0:0:0:25:Snare.wav
329,192,93259,1,2,0:0:0:0:
109,192,93259,1,0,0:0:0:25:Snare.wav
36,192,93343,5,0,0:0:0:50:Kick.wav
256,192,93343,1,0,0:0:0:0:
475,192,93343,128,0,93926:0:0:0:0:
402,192,93343,1,0,0:0:0:30:Crash.wav
109,192,93426,1,0,0:0:0:0:
329,192,93509,1,0,0:0:0:0:
182,192,93593,1,0,0:0:0:0:
256,192,93676,1,0,0:0:0:0:
36,192,93676,1,0,0:0:0:50:Kick.wav
109,192,93759,1,0,0:0:0:0:
329,192,93843,1,0,0:0:0:0:
182,192,93926,1,0,0:0:0:0:
329,192,94009,128,0,94259:0:0:0:0:
36,192,94009,1,0,0:0:0:0:
475,192,94009,1,0,0:0:0:50:Kick.wav
109,192,94093,1,0,0:0:0:0:
182,192,94176,1,0,0:0:0:0:
36,192,94259,1,0,0:0:0:0:
109,192,94343,128,0,94593:0:0:0:0:
329,192,94343,1,0,0:0:0:0:
182,192,94343,1,0,0:0:0:50:Kick.wav
402,192,94426,1,0,0:0:0:0:
475,192,94509,1,0,0:0:0:0:
329,192,94593,1,0,0:0:0:0:
182,192,94676,1,0,0:0:0:0:
475,192,94676,1,0,0:0:0:0:
36,192,94676,1,0,0:0:0:50:Kick.wav
256,192,94759,1,0,0:0:0:0:
402,192,94843,1,0,0:0:0:0:
329,192,94926,1,0,0:0:0:0:
182,192,94926,1,0,0:0:0:0:
475,192,95009,1,0,0:0:0:0:
36,192,95009,1,0,0:0:0:50:Kick.wav
256,192,95009,1,0,0:0:0:0:
402,192,95093,1,0,0:0:0:0:
256,192,95176,1,0,0:0:0:0:
182,192,95259,1,0,0:0:0:0:
402,192,95259,1,0,0:0:0:0:
329,192,95343,128,0,95926:0:0:0:0:
256,192,95343,1,0,0:0:0:0:
475,192,95343,1,0,0:0:0:50:Kick.wav
109,192,95426,1,0,0:0:0:0:
182,192,95509,1,0,0:0:0:0:
402,192,95509,1,0,0:0:0:50:Kick.wav
36,192,95593,1,0,0:0:0:0:
256,192,95676,1,0,0:0:0:0:
475,192,95676,1,0,0:0:0:50:Kick.wav
109,192,95759,1,0,0:0:0:0:
182,192,95843,1,0,0:0:0:0:
402,192,95843,1,0,0:0:0:50:Kick.wav
36,192,95926,1,0,0:0:0:0:
475,192,96009,128,0,96593:0:0:0:0:
329,192,96009,1,0,0:0:0:0:
109,192,96009,1,0,0:0:0:50:Kick.wav
256,192,96093,1,0,0:0:0:0:
109,192,96176,1,0,0:0:0:0:
329,192,96259,1,0,0:0:0:0:
256,192,96343,1,0,0:0:0:0:
36,192,96343,1,0,0:0:0:50:Kick.wav
109,192,96426,1,0,0:0:0:0:
256,192,96509,1,0,0:0:0:0:
36,192,96593,1,0,0:0:0:0:
329,192,96676,128,0,96926:0:0:0:0:
182,192,96676,1,0,0:0:0:0:
475,192,96676,1,0,0:0:0:50:Kick.wav
36,192,96759,1,0,0:0:0:0:
256,192,96843,1,0,0:0:0:0:
182,192,96926,1,0,0:0:0:0:
109,192,97009,128,0,97259:0:0:0:0:
329,192,97009,1,0,0:0:0:0:
36,192,97009,1,0,0:0:0:50:Kick.wav
475,192,97093,1,0,0:0:0:0:
256,192,97176,1,0,0:0:0:0:
329,192,97259,1,0,0:0:0:0:
182,192,97343,1,0,0:0:0:0:
475,192,97343,1,0,0:0:0:0:
36,192,97343,1,0,0:0:0:50:Kick.wav
329,192,97426,1,0,0:0:0:0:
402,192,97509,1,0,0:0:0:0:
109,192,97593,1,0,0:0:0:0:
475,192,97593,1,0,0:0:0:0:
182,192,97676,1,0,0:0:0:0:
329,192,97676,1,0,0:0:0:0:
36,192,97676,1,0,0:0:0:50:Kick.wav
475,192,97759,1,0,0:0:0:0:
402,192,97843,1,0,0:0:0:0:
329,192,97926,1,0,0:0:0:0:
109,192,97926,1,0,0:0:0:0:
182,192,98009,1,0,0:0:0:0:
402,192,98009,1,0,0:0:0:0:
36,192,98009,1,0,0:0:0:50:Kick.wav
475,192,98093,1,0,0:0:0:0:
329,192,98093,1,0,0:0:0:50:Kick.wav
256,192,98176,1,0,0:0:0:0:
109,192,98176,1,0,0:0:0:50:Kick.wav
475,192,98259,1,0,0:0:0:0:
329,192,98259,1,0,0:0:0:50:Kick.wav
182,192,98343,1,0,0:0:0:0:
402,192,98343,1,0,0:0:0:0:
36,192,98343,1,0,0:0:0:50:Kick.wav
256,192,98426,1,0,0:0:0:0:
329,192,98509,1,0,0:0:0:0:
475,192,98509,1,0,0:0:0:50:Kick.wav
256,192,98593,1,0,0:0:0:0:
36,192,98676,1,0,0:0:0:30:Crash.wav
329,192,98676,1,0,0:0:0:0:
182,192,98676,1,0,0:0:0:50:Kick.wav
475,192,98676,1,0,0:0:0:45:Snare.wav
109,192,98759,1,0,0:0:0:0:
329,192,98843,1,0,0:0:0:0:
475,192,98843,1,0,0:0:0:45:Snare.wav
109,192,98926,1,0,0:0:0:0:
256,192,99009,1,0,0:0:0:0:
402,192,99009,1,0,0:0:0:45:Snare.wav
182,192,99009,1,0,0:0:0:50:Kick.wav
36,192,99093,1,0,0:0:0:0:
256,192,99176,1,0,0:0:0:0:
402,192,99176,1,0,0:0:0:45:Snare.wav
36,192,99259,1,0,0:0:0:0:
329,192,99343,1,0,0:0:0:0:
475,192,99343,1,0,0:0:0:45:Snare.wav
182,192,99343,1,0,0:0:0:50:Kick.wav
109,192,99426,1,0,0:0:0:0:
329,192,99509,1,0,0:0:0:0:
475,192,99509,1,0,0:0:0:45:Snare.wav
109,192,99593,1,0,0:0:0:0:
256,192,99676,1,0,0:0:0:0:
402,192,99676,1,0,0:0:0:45:Snare.wav
182,192,99676,1,0,0:0:0:50:Kick.wav
36,192,99759,1,0,0:0:0:0:
256,192,99843,1,0,0:0:0:0:
402,192,99843,1,0,0:0:0:45:Snare.wav
36,192,99926,1,0,0:0:0:0:
182,192,100009,1,0,0:0:0:30:Crash.wav
402,192,100009,1,0,0:0:0:0:
109,192,100009,1,0,0:0:0:50:Kick.wav
475,192,100009,1,0,0:0:0:45:Snare.wav
329,192,100093,1,0,0:0:0:0:
256,192,100176,1,0,0:0:0:0:
36,192,100176,1,0,0:0:0:45:Snare.wav
402,192,100259,1,0,0:0:0:0:
182,192,100343,1,0,0:0:0:0:
475,192,100343,1,0,0:0:0:45:Snare.wav
109,192,100343,1,0,0:0:0:50:Kick.wav
256,192,100426,1,0,0:0:0:0:
329,192,100509,1,0,0:0:0:0:
475,192,100509,1,0,0:0:0:45:Snare.wav
182,192,100593,1,0,0:0:0:0:
402,192,100676,1,0,0:0:0:0:
475,192,100676,1,0,0:0:0:45:Snare.wav
36,192,100676,1,0,0:0:0:50:Kick.wav
329,192,100759,1,0,0:0:0:0:
256,192,100843,1,0,0:0:0:0:
109,192,100843,1,0,0:0:0:45:Snare.wav
402,192,100926,1,0,0:0:0:0:
475,192,101009,1,0,0:0:0:45:Snare.wav
329,192,101009,1,0,0:0:0:50:Kick.wav
256,192,101051,1,0,0:0:0:50:Kick.wav
182,192,101093,1,0,0:0:0:50:Kick.wav
109,192,101134,1,0,0:0:0:50:Kick.wav
402,192,101176,1,0,0:0:0:45:Snare.wav
36,192,101176,1,0,0:0:0:50:Kick.wav
329,192,101343,1,0,0:0:0:0:
256,192,101343,1,0,0:0:0:30:Crash.wav
36,192,101343,1,0,0:0:0:50:Kick.wav
402,192,101426,1,0,0:0:0:0:
109,192,101426,1,0,0:0:0:45:Snare.wav
329,192,101509,1,0,0:0:0:0:
36,192,101509,1,0,0:0:0:50:Kick.wav
402,192,101593,1,0,0:0:0:0:
109,192,101593,1,0,0:0:0:45:Snare.wav
475,192,101676,1,0,0:0:0:0:
182,192,101676,1,0,0:0:0:50:Kick.wav
329,192,101759,1,0,0:0:0:0:
36,192,101759,1,0,0:0:0:45:Snare.wav
475,192,101843,1,0,0:0:0:0:
182,192,101843,1,0,0:0:0:50:Kick.wav
329,192,101926,1,0,0:0:0:0:
36,192,101926,1,0,0:0:0:45:Snare.wav
475,192,102009,1,0,0:0:0:0:
256,192,102009,1,0,0:0:0:30:Crash.wav
182,192,102009,1,0,0:0:0:50:Kick.wav
402,192,102093,1,0,0:0:0:0:
109,192,102093,1,0,0:0:0:45:Snare.wav
475,192,102176,1,0,0:0:0:0:
182,192,102176,1,0,0:0:0:50:Kick.wav
402,192,102259,1,0,0:0:0:0:
109,192,102259,1,0,0:0:0:45:Snare.wav
329,192,102343,1,0,0:0:0:0:
36,192,102343,1,0,0:0:0:50:Kick.wav
475,192,102426,1,0,0:0:0:0:
182,192,102426,1,0,0:0:0:45:Snare.wav
329,192,102509,1,0,0:0:0:0:
36,192,102509,1,0,0:0:0:50:Kick.wav
475,192,102593,1,0,0:0:0:0:
182,192,102593,1,0,0:0:0:45:Snare.wav
402,192,102676,1,0,0:0:0:0:
256,192,102676,1,0,0:0:0:30:Crash.wav
109,192,102676,1,0,0:0:0:50:Kick.wav
329,192,102759,1,0,0:0:0:0:
36,192,102759,1,0,0:0:0:45:Snare.wav
475,192,102843,1,0,0:0:0:0:
182,192,102843,1,0,0:0:0:45:Snare.wav
402,192,102926,1,0,0:0:0:0:
109,192,102926,1,0,0:0:0:45:Snare.wav
329,192,103009,1,0,0:0:0:0:
256,192,103009,1,0,0:0:0:30:Crash.wav
36,192,103009,1,0,0:0:0:50:Kick.wav
475,192,103093,1,0,0:0:0:0:
182,192,103093,1,0,0:0:0:45:Snare.wav
402,192,103176,1,0,0:0:0:0:
109,192,103176,1,0,0:0:0:45:Snare.wav
329,192,103259,1,0,0:0:0:0:
36,192,103259,1,0,0:0:0:45:Snare.wav
475,192,103343,1,0,0:0:0:0:
256,192,103343,1,0,0:0:0:30:Crash.wav
182,192,103343,1,0,0:0:0:50:Kick.wav
36,192,103676,1,0,0:0:0:0:
109,192,103732,1,0,0:0:0:0:
182,192,103787,1,0,0:0:0:0:
256,192,103843,1,0,0:0:0:0:
329,192,103898,1,0,0:0:0:0:
402,192,103954,1,0,0:0:0:0:
475,192,104009,128,0,104676:0:0:0:0:
182,192,104009,1,0,0:0:0:0:
36,192,104009,1,0,0:0:0:50:Kick.wav
109,192,104009,1,0,0:0:0:30:Crash.wav
402,192,104176,1,0,0:0:0:0:
256,192,104176,1,0,0:0:0:30:Hats.wav
329,192,104343,1,0,0:0:0:0:
182,192,104343,1,0,0:0:0:50:Kick.wav
256,192,104509,1,0,0:0:0:30:Hats.wav
109,192,104509,1,0,0:0:0:0:
182,192,104676,1,0,0:0:0:0:
402,192,104676,1,0,0:0:0:0:
36,192,104676,1,0,0:0:0:50:Kick.wav
109,192,104843,1,0,0:0:0:0:
329,192,104843,1,0,0:0:0:30:Hats.wav
182,192,105009,1,0,0:0:0:0:
402,192,105009,1,0,0:0:0:0:
36,192,105009,1,0,0:0:0:50:Kick.wav
109,192,105176,1,0,0:0:0:0:
329,192,105176,1,0,0:0:0:30:Hats.wav
256,192,105343,1,0,0:0:0:0:
475,192,105343,128,0,106009:0:0:0:0:
36,192,105343,1,0,0:0:0:50:Kick.wav
109,192,105509,1,0,0:0:0:0:
329,192,105509,1,0,0:0:0:30:Hats.wav
402,192,105676,1,0,0:0:0:0:
182,192,105676,1,0,0:0:0:50:Kick.wav
109,192,105843,1,0,0:0:0:0:
329,192,105843,1,0,0:0:0:30:Hats.wav
256,192,106009,1,0,0:0:0:0:
402,192,106009,1,0,0:0:0:0:
36,192,106009,1,0,0:0:0:50:Kick.wav
329,192,106176,1,0,0:0:0:0:
475,192,106176,1,0,0:0:0:30:Hats.wav
109,192,106176,1,0,0:0:0:50:Kick.wav
402,192,106343,1,0,0:0:0:0:
182,192,106343,1,0,0:0:0:50:Kick.wav
256,192,106509,1,0,0:0:0:0:
475,192,106509,1,0,0:0:0:30:Hats.wav
109,192,106509,1,0,0:0:0:50:Kick.wav
402,192,106676,1,0,0:0:0:0:
182,192,106676,128,0,107343:0:0:0:0:
36,192,106676,1,0,0:0:0:50:Kick.wav
329,192,106843,1,0,0:0:0:0:
475,192,106843,1,0,0:0:0:30:Hats.wav
256,192,107009,1,0,0:0:0:0:
109,192,107009,1,0,0:0:0:50:Kick.wav
329,192,107176,1,0,0:0:0:0:
475,192,107176,1,0,0:0:0:30:Hats.wav
256,192,107343,1,0,0:0:0:0:
402,192,107343,1,0,0:0:0:0:
36,192,107343,1,0,0:0:0:50:Kick.wav
109,192,107509,1,0,0:0:0:0:
329,192,107509,1,0,0:0:0:30:Hats.wav
256,192,107676,1,0,0:0:0:0:
402,192,107676,1,0,0:0:0:0:
36,192,107676,1,0,0:0:0:50:Kick.wav
109,192,107843,1,0,0:0:0:0:
329,192,107843,1,0,0:0:0:30:Hats.wav
182,192,108009,1,0,0:0:0:0:
329,192,108009,128,0,108343:0:0:0:0:
36,192,108009,1,0,0:0:0:50:Kick.wav
109,192,108176,1,0,0:0:0:0:
256,192,108176,1,0,0:0:0:30:Hats.wav
475,192,108343,1,0,0:0:0:0:
182,192,108343,128,0,108676:0:0:0:0:
36,192,108343,1,0,0:0:0:50:Kick.wav
256,192,108509,1,0,0:0:0:0:
402,192,108509,1,0,0:0:0:30:Hats.wav
329,192,108676,1,0,0:0:0:0:
402,192,108676,128,0,109343:0:0:0:0:
36,192,108676,1,0,0:0:0:50:Kick.wav
182,192,108759,1,0,0:0:0:50:Kick.wav
36,192,108843,1,0,0:0:0:50:Kick.wav
182,192,108926,1,0,0:0:0:50:Kick.wav
256,192,109009,1,0,0:0:0:50:Kick.wav
109,192,109093,1,0,0:0:0:45:Snare.wav
256,192,109176,1,0,0:0:0:50:Kick.wav
109,192,109259,1,0,0:0:0:45:Snare.wav
329,192,109343,1,0,0:0:0:0:
256,192,109343,1,0,0:0:0:0:
36,192,109343,1,0,0:0:0:50:Kick.wav
475,192,109343,1,0,0:0:0:45:Snare.wav
109,192,109509,1,0,0:0:0:0:
402,192,109509,1,0,0:0:0:30:Hats.wav
182,192,109676,1,0,0:0:0:0:
256,192,109676,1,0,0:0:0:0:
36,192,109676,1,0,0:0:0:50:Kick.wav
475,192,109676,1,0,0:0:0:45:Snare.wav
109,192,109843,1,0,0:0:0:0:
329,192,109843,1,0,0:0:0:30:Hats.wav
256,192,110009,1,0,0:0:0:0:
182,192,110009,1,0,0:0:0:0:
36,192,110009,1,0,0:0:0:50:Kick.wav
475,192,110009,1,0,0:0:0:45:Snare.wav
109,192,110176,1,0,0:0:0:0:
402,192,110176,1,0,0:0:0:30:Hats.wav
329,192,110343,1,0,0:0:0:0:
256,192,110343,1,0,0:0:0:0:
36,192,110343,1,0,0:0:0:50:Kick.wav
475,192,110343,1,0,0:0:0:45:Snare.wav
182,192,110509,1,0,0:0:0:0:
402,192,110509,1,0,0:0:0:30:Hats.wav
329,192,110676,1,0,0:0:0:0:
109,192,110676,1,0,0:0:0:0:
36,192,110676,1,0,0:0:0:50:Kick.wav
475,192,110676,1,0,0:0:0:45:Snare.wav
182,192,110843,1,0,0:0:0:0:
402,192,110843,1,0,0:0:0:30:Hats.wav
329,192,111009,1,0,0:0:0:0:
109,192,111009,1,0,0:0:0:0:
36,192,111009,1,0,0:0:0:50:Kick.wav
475,192,111009,1,0,0:0:0:45:Snare.wav
182,192,111176,1,0,0:0:0:0:
402,192,111176,1,0,0:0:0:30:Hats.wav
329,192,111343,1,0,0:0:0:0:
256,192,111343,1,0,0:0:0:0:
109,192,111343,1,0,0:0:0:50:Kick.wav
475,192,111343,1,0,0:0:0:45:Snare.wav
182,192,111509,1,0,0:0:0:30:Hats.wav
256,192,111509,1,0,0:0:0:0:
36,192,111509,1,0,0:0:0:50:Kick.wav
402,192,111509,1,0,0:0:0:45:Snare.wav
329,192,111676,1,0,0:0:0:0:
256,192,111676,1,0,0:0:0:0:
109,192,111676,1,0,0:0:0:50:Kick.wav
475,192,111676,1,0,0:0:0:45:Snare.wav
182,192,111843,1,0,0:0:0:30:Hats.wav
256,192,111843,1,0,0:0:0:0:
36,192,111843,1,0,0:0:0:50:Kick.wav
402,192,111843,1,0,0:0:0:45:Snare.wav
475,192,112009,128,0,114009:0:0:0:0:
109,192,112009,1,0,0:0:0:0:
36,192,112009,1,0,0:0:0:50:Kick.wav
402,192,112009,1,0,0:0:0:45:Snare.wav
182,192,112176,1,0,0:0:0:0:
329,192,112176,1,0,0:0:0:30:Hats.wav
256,192,112343,1,0,0:0:0:0:
402,192,112343,1,0,0:0:0:45:Snare.wav
109,192,112343,1,0,0:0:0:50:Kick.wav
36,192,112509,1,0,0:0:0:0:
182,192,112509,1,0,0:0:0:30:Hats.wav
256,192,112676,1,0,0:0:0:0:
402,192,112676,1,0,0:0:0:45:Snare.wav
109,192,112676,1,0,0:0:0:50:Kick.wav
182,192,112843,1,0,0:0:0:0:
329,192,112843,1,0,0:0:0:30:Hats.wav
402,192,113009,1,0,0:0:0:0:
256,192,113009,1,0,0:0:0:45:Snare.wav
109,192,113009,1,0,0:0:0:50:Kick.wav
182,192,113176,1,0,0:0:0:0:
329,192,113176,1,0,0:0:0:30:Hats.wav
36,192,113343,1,0,0:0:0:0:
402,192,113343,1,0,0:0:0:45:Snare.wav
256,192,113343,1,0,0:0:0:50:Kick.wav
109,192,113509,1,0,0:0:0:0:
329,192,113509,1,0,0:0:0:30:Hats.wav
256,192,113676,1,0,0:0:0:0:
402,192,113676,1,0,0:0:0:45:Snare.wav
36,192,113676,1,0,0:0:0:50:Kick.wav
182,192,113843,1,0,0:0:0:0:
329,192,113843,1,0,0:0:0:30:Hats.wav
182,192,114009,1,0,0:0:0:0:
402,192,114009,1,0,0:0:0:45:Snare.wav
36,192,114009,1,0,0:0:0:50:Kick.wav
256,192,114093,1,0,0:0:0:50:Kick.wav
329,192,114176,1,0,0:0:0:30:Hats.wav
109,192,114176,1,0,0:0:0:50:Kick.wav
182,192,114259,1,0,0:0:0:50:Kick.wav
329,192,114343,1,0,0:0:0:0:
475,192,114343,1,0,0:0:0:45:Snare.wav
36,192,114343,1,0,0:0:0:50:Kick.wav
329,192,114509,1,0,0:0:0:30:Hats.wav
475,192,114509,1,0,0:0:0:45:Snare.wav
36,192,114509,1,0,0:0:0:50:Kick.wav
182,192,114676,128,0,117343:0:0:0:0:
256,192,114676,1,0,0:0:0:0:
36,192,114676,1,0,0:0:0:50:Kick.wav
402,192,114676,1,0,0:0:0:45:Snare.wav
109,192,114843,1,0,0:0:0:0:
329,192,114843,1,0,0:0:0:30:Hats.wav
475,192,114843,1,0,0:0:0:45:Snare.wav
256,192,115009,1,0,0:0:0:0:
402,192,115009,1,0,0:0:0:45:Snare.wav
36,192,115009,1,0,0:0:0:50:Kick.wav
109,192,115176,1,0,0:0:0:0:
329,192,115176,1,0,0:0:0:30:Hats.wav
475,192,115176,1,0,0:0:0:45:Snare.wav
256,192,115343,1,0,0:0:0:0:
402,192,115343,1,0,0:0:0:45:Snare.wav
36,192,115343,1,0,0:0:0:50:Kick.wav
109,192,115509,1,0,0:0:0:0:
329,192,115509,1,0,0:0:0:30:Hats.wav
475,192,115509,1,0,0:0:0:45:Snare.wav
256,192,115676,1,0,0:0:0:0:
402,192,115676,1,0,0:0:0:45:Snare.wav
36,192,115676,1,0,0:0:0:50:Kick.wav
109,192,115843,1,0,0:0:0:0:
329,192,115843,1,0,0:0:0:30:Hats.wav
475,192,115843,1,0,0:0:0:45:Snare.wav
256,192,116009,1,0,0:0:0:0:
402,192,116009,1,0,0:0:0:45:Snare.wav
36,192,116009,1,0,0:0:0:50:Kick.wav
36,192,116176,1,0,0:0:0:0:
256,192,116176,1,0,0:0:0:30:Hats.wav
402,192,116176,1,0,0:0:0:45:Snare.wav
475,192,116343,1,0,0:0:0:0:
329,192,116343,1,0,0:0:0:45:Snare.wav
109,192,116343,1,0,0:0:0:50:Kick.wav
109,192,116509,1,0,0:0:0:0:
329,192,116509,1,0,0:0:0:30:Hats.wav
475,192,116509,1,0,0:0:0:45:Snare.wav
256,192,116676,1,0,0:0:0:0:
402,192,116676,1,0,0:0:0:45:Snare.wav
36,192,116676,1,0,0:0:0:50:Kick.wav
36,192,116843,1,0,0:0:0:0:
256,192,116843,1,0,0:0:0:30:Hats.wav
402,192,116843,1,0,0:0:0:45:Snare.wav
36,192,117009,1,0,0:0:0:45:Snare.wav
475,192,117009,1,0,0:0:0:50:Kick.wav
402,192,117051,1,0,0:0:0:50:Kick.wav
329,192,117093,1,0,0:0:0:50:Kick.wav
256,192,117134,1,0,0:0:0:50:Kick.wav
329,192,117176,1,0,0:0:0:30:Hats.wav
475,192,117176,1,0,0:0:0:45:Snare.wav
109,192,117176,1,0,0:0:0:50:Kick.wav
256,192,117343,1,0,0:0:0:30:Crash.wav
329,192,117343,1,0,0:0:0:45:Snare.wav
36,192,117343,1,0,0:0:0:50:Kick.wav
475,192,117426,1,0,0:0:0:45:Snare.wav
109,192,117509,1,0,0:0:0:30:Hats.wav
329,192,117509,1,0,0:0:0:45:Snare.wav
475,192,117593,1,0,0:0:0:45:Snare.wav
256,192,117676,1,0,0:0:0:45:Snare.wav
36,192,117676,1,0,0:0:0:50:Kick.wav
402,192,117759,1,0,0:0:0:45:Snare.wav
109,192,117843,1,0,0:0:0:30:Hats.wav
256,192,117843,1,0,0:0:0:45:Snare.wav
402,192,117926,1,0,0:0:0:45:Snare.wav
182,192,118009,1,0,0:0:0:30:Crash.wav
329,192,118009,1,0,0:0:0:45:Snare.wav
36,192,118009,1,0,0:0:0:50:Kick.wav
475,192,118093,1,0,0:0:0:45:Snare.wav
329,192,118176,1,0,0:0:0:30:Hats.wav
109,192,118176,1,0,0:0:0:45:Snare.wav
475,192,118259,1,0,0:0:0:45:Snare.wav
256,192,118343,1,0,0:0:0:45:Snare.wav
36,192,118343,1,0,0:0:0:50:Kick.wav
402,192,118426,1,0,0:0:0:45:Snare.wav
109,192,118509,1,0,0:0:0:30:Hats.wav
256,192,118509,1,0,0:0:0:45:Snare.wav
402,192,118593,1,0,0:0:0:45:Snare.wav
182,192,118676,1,0,0:0:0:30:Crash.wav
475,192,118676,1,0,0:0:0:45:Snare.wav
36,192,118676,1,0,0:0:0:50:Kick.wav
402,192,118759,1,0,0:0:0:45:Snare.wav
109,192,118843,1,0,0:0:0:30:Hats.wav
329,192,118843,1,0,0:0:0:45:Snare.wav
475,192,118926,1,0,0:0:0:45:Snare.wav
182,192,119009,1,0,0:0:0:30:Crash.wav
329,192,119009,1,0,0:0:0:45:Snare.wav
36,192,119009,1,0,0:0:0:50:Kick.wav
475,192,119093,1,0,0:0:0:45:Snare.wav
109,192,119176,1,0,0:0:0:30:Hats.wav
402,192,119176,1,0,0:0:0:45:Snare.wav
329,192,119259,1,0,0:0:0:45:Snare.wav
182,192,119343,1,0,0:0:0:45:Snare.wav
36,192,119343,1,0,0:0:0:50:Kick.wav
475,192,119343,1,0,0:0:0:30:Crash.wav
109,192,119426,1,0,0:0:0:45:Snare.wav
402,192,119509,1,0,0:0:0:45:Snare.wav
256,192,119509,1,0,0:0:0:50:Kick.wav
329,192,119593,1,0,0:0:0:45:Snare.wav
182,192,119676,1,0,0:0:0:45:Snare.wav
36,192,119676,1,0,0:0:0:50:Kick.wav
109,192,119759,1,0,0:0:0:45:Snare.wav
402,192,119843,1,0,0:0:0:45:Snare.wav
256,192,119843,1,0,0:0:0:50:Kick.wav
329,192,119926,1,0,0:0:0:45:Snare.wav
109,192,120009,128,0,120176:0:0:0:0:
256,192,120009,1,2,0:0:0:0:
475,192,120009,128,0,122009:0:0:0:0:
36,192,120009,1,0,0:0:0:50:Kick.wav
402,192,120009,1,0,0:0:0:30:Crash.wav
256,192,120259,1,2,0:0:0:0:
109,192,120259,128,0,120426:0:0:0:0:
36,192,120343,1,0,0:0:0:50:Kick.wav
256,192,120509,1,2,0:0:0:0:
109,192,120509,128,0,120676:0:0:0:0:
329,192,120676,1,2,0:0:0:0:
182,192,120676,128,0,120843:0:0:0:0:
36,192,120676,1,0,0:0:0:50:Kick.wav
329,192,120926,1,2,0:0:0:0:
182,192,120926,128,0,121093:0:0:0:0:
36,192,121009,1,0,0:0:0:50:Kick.wav
329,192,121176,1,2,0:0:0:0:
182,192,121176,128,0,121343:0:0:0:0:
402,192,121343,1,2,0:0:0:0:
256,192,121343,128,0,121509:0:0:0:0:
36,192,121343,1,0,0:0:0:50:Kick.wav
402,192,121593,1,2,0:0:0:0:
256,192,121593,128,0,121759:0:0:0:0:
36,192,121676,1,0,0:0:0:50:Kick.wav
402,192,121843,1,2,0:0:0:0:
256,192,121843,128,0,122009:0:0:0:0:
402,192,122009,1,2,0:0:0:0:
182,192,122009,1,0,0:0:0:0:
36,192,122009,1,0,0:0:0:50:Kick.wav
109,192,122176,1,0,0:0:0:50:Kick.wav
256,192,122232,1,0,0:0:0:0:
475,192,122259,1,2,0:0:0:0:
329,192,122259,1,0,0:0:0:0:
182,192,122259,1,0,0:0:0:0:
402,192,122343,1,0,0:0:0:0:
109,192,122343,1,0,0:0:0:50:Kick.wav
329,192,122454,1,0,0:0:0:0:
402,192,122509,1,2,0:0:0:0:
182,192,122509,1,0,0:0:0:0:
36,192,122509,1,0,0:0:0:50:Kick.wav
256,192,122565,1,0,0:0:0:0:
475,192,122676,128,0,122843:0:0:0:0:
329,192,122676,1,2,0:0:0:0:
36,192,122676,1,0,0:0:0:50:Kick.wav
182,192,122676,1,0,0:0:0:0:
109,192,122787,128,0,123759:0:0:0:0:
475,192,122926,128,0,123093:0:0:0:0:
329,192,122926,1,2,0:0:0:0:
36,192,123009,1,0,0:0:0:50:Kick.wav
329,192,123176,1,2,0:0:0:0:
475,192,123176,128,0,123343:0:0:0:0:
402,192,123343,128,0,123509:0:0:0:0:
256,192,123343,1,2,0:0:0:0:
36,192,123343,1,0,0:0:0:50:Kick.wav
256,192,123593,1,2,0:0:0:0:
402,192,123593,128,0,123759:0:0:0:0:
36,192,123676,1,0,0:0:0:50:Kick.wav
109,192,123843,1,0,0:0:0:0:
256,192,123843,1,2,0:0:0:0:
402,192,123843,128,0,124009:0:0:0:0:
182,192,123926,1,0,0:0:0:0:
329,192,124009,128,0,124176:0:0:0:0:
475,192,124009,1,2,0:0:0:0:
36,192,124009,1,0,0:0:0:50:Kick.wav
109,192,124009,128,0,124926:0:0:0:0:
475,192,124259,1,2,0:0:0:0:
329,192,124259,128,0,124426:0:0:0:0:
36,192,124343,1,0,0:0:0:50:Kick.wav
475,192,124509,1,2,0:0:0:0:
329,192,124509,128,0,124676:0:0:0:0:
256,192,124676,1,2,0:0:0:0:
402,192,124676,128,0,124843:0:0:0:0:
36,192,124676,1,0,0:0:0:50:Kick.wav
182,192,124759,1,0,0:0:0:50:Kick.wav
36,192,124843,1,0,0:0:0:50:Kick.wav
256,192,124926,1,2,0:0:0:0:
402,192,124926,128,0,125093:0:0:0:0:
182,192,124926,1,0,0:0:0:50:Kick.wav
109,192,125009,1,0,0:0:0:0:
36,192,125009,1,0,0:0:0:50:Kick.wav
182,192,125121,1,0,0:0:0:0:
256,192,125176,1,2,0:0:0:0:
402,192,125176,128,0,125343:0:0:0:0:
36,192,125176,1,0,0:0:0:50:Kick.wav
109,192,125232,1,0,0:0:0:0:
475,192,125343,128,0,125509:0:0:0:0:
329,192,125343,1,2,0:0:0:0:
36,192,125343,1,0,0:0:0:50:Kick.wav
182,192,125343,128,0,126259:0:0:0:0:
329,192,125593,1,2,0:0:0:0:
475,192,125593,128,0,125759:0:0:0:0:
36,192,125676,1,0,0:0:0:50:Kick.wav
329,192,125843,1,2,0:0:0:0:
475,192,125843,128,0,126009:0:0:0:0:
256,192,126009,1,2,0:0:0:0:
402,192,126009,128,0,126176:0:0:0:0:
36,192,126009,1,0,0:0:0:50:Kick.wav
256,192,126259,1,2,0:0:0:0:
402,192,126259,128,0,126426:0:0:0:0:
182,192,126343,1,0,0:0:0:0:
36,192,126343,1,0,0:0:0:50:Kick.wav
109,192,126426,1,0,0:0:0:0:
36,192,126509,1,0,0:0:0:0:
256,192,126509,1,2,0:0:0:0:
402,192,126509,128,0,126676:0:0:0:0:
109,192,126593,1,0,0:0:0:0:
36,192,126676,128,0,126843:0:0:0:0:
182,192,126676,1,2,0:0:0:0:
475,192,126676,1,0,0:0:0:50:Kick.wav
329,192,126676,128,0,127093:0:0:0:0:
36,192,126926,128,0,127093:0:0:0:0:
182,192,126926,1,2,0:0:0:0:
475,192,127009,1,0,0:0:0:50:Kick.wav
182,192,127176,1,2,0:0:0:0:
36,192,127176,128,0,127343:0:0:0:0:
475,192,127176,1,0,0:0:0:0:
402,192,127259,1,0,0:0:0:0:
109,192,127343,128,0,127509:0:0:0:0:
256,192,127343,1,2,0:0:0:0:
329,192,127343,1,0,0:0:0:50:Kick.wav
475,192,127343,128,0,127454:0:0:0:0:
402,192,127537,128,0,127676:0:0:0:0:
256,192,127593,1,2,0:0:0:0:
109,192,127593,128,0,127759:0:0:0:0:
329,192,127759,128,0,127926:0:0:0:0:
256,192,127843,1,2,0:0:0:0:
109,192,127843,128,0,128009:0:0:0:0:
329,192,128009,1,2,0:0:0:0:
182,192,128009,1,0,0:0:0:0:
36,192,128009,1,0,0:0:0:50:Kick.wav
475,192,128009,128,0,128176:0:0:0:0:
109,192,128093,1,0,0:0:0:0:
256,192,128176,1,0,0:0:0:0:
182,192,128259,1,0,0:0:0:0:
329,192,128259,1,2,0:0:0:0:
475,192,128259,128,0,128426:0:0:0:0:
109,192,128343,128,0,129176:0:0:0:0:
36,192,128343,1,0,0:0:0:50:Kick.wav
329,192,128509,1,2,0:0:0:0:
475,192,128509,128,0,128676:0:0:0:0:
256,192,128676,1,2,0:0:0:0:
402,192,128676,128,0,128843:0:0:0:0:
36,192,128676,1,0,0:0:0:50:Kick.wav
256,192,128926,1,2,0:0:0:0:
402,192,128926,128,0,129093:0:0:0:0:
36,192,129009,1,0,0:0:0:50:Kick.wav
36,192,129176,1,0,0:0:0:0:
256,192,129176,1,2,0:0:0:0:
402,192,129176,128,0,129343:0:0:0:0:
109,192,129259,1,0,0:0:0:0:
182,192,129343,1,2,0:0:0:0:
36,192,129343,128,0,130009:0:0:0:0:
475,192,129343,1,0,0:0:0:50:Kick.wav
329,192,129343,128,0,129509:0:0:0:0:
182,192,129593,1,2,0:0:0:0:
329,192,129593,128,0,129759:0:0:0:0:
475,192,129676,1,0,0:0:0:50:Kick.wav
182,192,129843,1,2,0:0:0:0:
329,192,129843,128,0,130009:0:0:0:0:
182,192,130009,1,0,0:0:0:50:Kick.wav
36,192,130093,1,0,0:0:0:50:Kick.wav
182,192,130176,1,0,0:0:0:50:Kick.wav
36,192,130259,1,0,0:0:0:50:Kick.wav
329,192,130343,128,0,130676:0:0:0:0:
182,192,130343,1,0,0:0:0:50:Kick.wav
109,192,130509,1,0,0:0:0:50:Kick.wav
402,192,130676,128,0,131759:0:0:0:0:
256,192,130676,1,0,0:0:0:0:
182,192,130676,1,0,0:0:0:30:Crash.wav
36,192,130676,1,0,0:0:0:50:Kick.wav
475,192,130676,1,0,0:0:0:45:Snare.wav
329,192,130843,1,0,0:0:0:0:
109,192,130843,1,0,0:0:0:30:Hats.wav
182,192,131009,1,0,0:0:0:0:
475,192,131009,1,0,0:0:0:45:Snare.wav
36,192,131009,1,0,0:0:0:50:Kick.wav
109,192,131176,1,0,0:0:0:0:
256,192,131176,1,0,0:0:0:30:Hats.wav
329,192,131343,1,0,0:0:0:0:
475,192,131343,1,0,0:0:0:45:Snare.wav
109,192,131343,1,0,0:0:0:50:Kick.wav
36,192,131509,1,0,0:0:0:0:
182,192,131509,1,0,0:0:0:30:Hats.wav
329,192,131676,1,0,0:0:0:0:
475,192,131676,1,0,0:0:0:45:Snare.wav
109,192,131676,1,0,0:0:0:50:Kick.wav
36,192,131843,1,0,0:0:0:0:
402,192,131843,1,0,0:0:0:0:
182,192,131843,1,0,0:0:0:30:Hats.wav
329,192,131926,1,0,0:0:0:0:
402,192,132009,128,0,132426:0:0:0:0:
256,192,132009,1,0,0:0:0:0:
109,192,132009,1,0,0:0:0:50:Kick.wav
475,192,132009,1,0,0:0:0:45:Snare.wav
182,192,132176,1,0,0:0:0:0:
329,192,132176,1,0,0:0:0:30:Hats.wav
182,192,132343,1,0,0:0:0:0:
475,192,132343,1,0,0:0:0:45:Snare.wav
36,192,132343,1,0,0:0:0:50:Kick.wav
109,192,132509,1,0,0:0:0:0:
402,192,132509,1,0,0:0:0:0:
256,192,132509,1,0,0:0:0:30:Hats.wav
329,192,132593,1,0,0:0:0:0:
256,192,132676,1,0,0:0:0:0:
182,192,132676,1,0,0:0:0:0:
36,192,132676,1,0,0:0:0:50:Kick.wav
402,192,132676,1,0,0:0:0:45:Snare.wav
329,192,132843,1,0,0:0:0:0:
475,192,132843,1,0,0:0:0:45:Snare.wav
109,192,132843,1,0,0:0:0:50:Kick.wav
182,192,133009,1,0,0:0:0:0:
402,192,133009,1,0,0:0:0:45:Snare.wav
36,192,133009,1,0,0:0:0:50:Kick.wav
329,192,133176,1,0,0:0:0:0:
475,192,133176,1,0,0:0:0:45:Snare.wav
109,192,133176,1,0,0:0:0:50:Kick.wav
256,192,133343,128,0,133926:0:0:0:0:
182,192,133343,1,0,0:0:0:0:
36,192,133343,1,0,0:0:0:50:Kick.wav
475,192,133343,1,0,0:0:0:45:Snare.wav
109,192,133509,1,0,0:0:0:0:
402,192,133509,1,0,0:0:0:30:Hats.wav
182,192,133676,1,0,0:0:0:0:
475,192,133676,1,0,0:0:0:45:Snare.wav
36,192,133676,1,0,0:0:0:50:Kick.wav
109,192,133843,1,0,0:0:0:0:
329,192,133843,1,0,0:0:0:30:Hats.wav
182,192,134009,128,0,134426:0:0:0:0:
256,192,134009,1,0,0:0:0:0:
36,192,134009,1,0,0:0:0:50:Kick.wav
475,192,134009,1,0,0:0:0:45:Snare.wav
109,192,134176,1,0,0:0:0:0:
402,192,134176,1,0,0:0:0:30:Hats.wav
329,192,134343,1,0,0:0:0:0:
475,192,134343,1,0,0:0:0:45:Snare.wav
36,192,134343,1,0,0:0:0:50:Kick.wav
109,192,134509,1,0,0:0:0:0:
182,192,134509,1,0,0:0:0:0:
402,192,134509,1,0,0:0:0:30:Hats.wav
329,192,134593,1,0,0:0:0:0:
109,192,134676,128,0,135259:0:0:0:0:
256,192,134676,1,0,0:0:0:0:
182,192,134676,1,0,0:0:0:50:Kick.wav
475,192,134676,1,0,0:0:0:45:Snare.wav
329,192,134843,1,0,0:0:0:0:
402,192,134843,1,0,0:0:0:30:Hats.wav
182,192,135009,1,0,0:0:0:0:
256,192,135009,1,0,0:0:0:45:Snare.wav
475,192,135009,1,0,0:0:0:50:Kick.wav
329,192,135176,1,0,0:0:0:0:
402,192,135176,1,0,0:0:0:30:Hats.wav
36,192,135343,128,0,135926:0:0:0:0:
109,192,135343,1,0,0:0:0:0:
256,192,135343,1,0,0:0:0:50:Kick.wav
475,192,135343,1,0,0:0:0:45:Snare.wav
329,192,135426,1,0,0:0:0:50:Kick.wav
402,192,135509,1,0,0:0:0:30:Hats.wav
182,192,135509,1,0,0:0:0:50:Kick.wav
256,192,135593,1,0,0:0:0:50:Kick.wav
109,192,135676,1,0,0:0:0:0:
475,192,135676,1,0,0:0:0:45:Snare.wav
329,192,135676,1,0,0:0:0:50:Kick.wav
109,192,135843,1,0,0:0:0:0:
475,192,135843,1,0,0:0:0:30:Hats.wav
329,192,135843,1,0,0:0:0:50:Kick.wav
256,192,136009,128,0,136926:0:0:0:0:
36,192,136009,1,0,0:0:0:0:
182,192,136009,1,0,0:0:0:30:Crash.wav
329,192,136009,1,0,0:0:0:50:Kick.wav
475,192,136009,1,0,0:0:0:45:Snare.wav
109,192,136176,1,0,0:0:0:0:
475,192,136176,1,0,0:0:0:45:Snare.wav
329,192,136176,1,0,0:0:0:50:Kick.wav
182,192,136343,1,0,0:0:0:0:
475,192,136343,1,0,0:0:0:45:Snare.wav
329,192,136343,1,0,0:0:0:50:Kick.wav
36,192,136509,1,0,0:0:0:0:
475,192,136509,1,0,0:0:0:45:Snare.wav
329,192,136509,1,0,0:0:0:50:Kick.wav
109,192,136676,1,0,0:0:0:0:
475,192,136676,1,0,0:0:0:45:Snare.wav
329,192,136676,1,0,0:0:0:50:Kick.wav
182,192,136843,1,0,0:0:0:0:
475,192,136843,1,0,0:0:0:45:Snare.wav
329,192,136843,1,0,0:0:0:50:Kick.wav
256,192,137009,1,0,0:0:0:0:
109,192,137009,1,0,0:0:0:0:
402,192,137009,1,0,0:0:0:50:Kick.wav
475,192,137009,1,0,0:0:0:45:Snare.wav
256,192,137176,1,0,0:0:0:0:
109,192,137176,1,0,0:0:0:0:
402,192,137176,1,0,0:0:0:50:Kick.wav
36,192,137176,1,0,0:0:0:45:Snare.wav
182,192,137259,1,0,0:0:0:0:
256,192,137343,128,0,137759:0:0:0:0:
36,192,137343,1,0,0:0:0:0:
109,192,137343,1,0,0:0:0:30:Crash.wav
329,192,137343,1,0,0:0:0:50:Kick.wav
475,192,137343,1,0,0:0:0:45:Snare.wav
109,192,137509,1,0,0:0:0:0:
475,192,137509,1,0,0:0:0:45:Snare.wav
329,192,137509,1,0,0:0:0:50:Kick.wav
182,192,137676,1,0,0:0:0:0:
475,192,137676,1,0,0:0:0:45:Snare.wav
329,192,137676,1,0,0:0:0:50:Kick.wav
256,192,137843,1,0,0:0:0:0:
36,192,137843,1,0,0:0:0:0:
329,192,137843,1,0,0:0:0:50:Kick.wav
475,192,137843,1,0,0:0:0:45:Snare.wav
182,192,137926,1,0,0:0:0:0:
109,192,138009,128,0,138259:0:0:0:0:
256,192,138009,1,0,0:0:0:0:
402,192,138009,1,0,0:0:0:50:Kick.wav
475,192,138009,1,0,0:0:0:45:Snare.wav
182,192,138176,1,0,0:0:0:0:
402,192,138176,1,0,0:0:0:45:Snare.wav
329,192,138176,1,0,0:0:0:50:Kick.wav
36,192,138343,128,0,138593:0:0:0:0:
475,192,138343,1,0,0:0:0:45:Snare.wav
402,192,138343,1,0,0:0:0:50:Kick.wav
329,192,138384,1,0,0:0:0:50:Kick.wav
256,192,138426,1,0,0:0:0:50:Kick.wav
182,192,138468,1,0,0:0:0:50:Kick.wav
475,192,138509,1,0,0:0:0:45:Snare.wav
109,192,138509,1,0,0:0:0:50:Kick.wav
475,192,138676,1,0,0:0:0:30:Crash.wav
329,192,138676,1,0,0:0:0:45:Snare.wav
36,192,138676,1,0,0:0:0:50:Kick.wav
182,192,138759,1,0,0:0:0:45:Snare.wav
329,192,138843,1,0,0:0:0:45:Snare.wav
182,192,138926,1,0,0:0:0:45:Snare.wav
402,192,139009,1,0,0:0:0:45:Snare.wav
36,192,139009,1,0,0:0:0:50:Kick.wav
256,192,139093,1,0,0:0:0:45:Snare.wav
402,192,139176,1,0,0:0:0:45:Snare.wav
256,192,139259,1,0,0:0:0:45:Snare.wav
182,192,139343,1,0,0:0:0:30:Crash.wav
475,192,139343,1,0,0:0:0:45:Snare.wav
36,192,139343,1,0,0:0:0:50:Kick.wav
329,192,139426,1,0,0:0:0:45:Snare.wav
475,192,139509,1,0,0:0:0:45:Snare.wav
402,192,139593,1,0,0:0:0:45:Snare.wav
182,192,139676,1,0,0:0:0:45:Snare.wav
36,192,139676,1,0,0:0:0:50:Kick.wav
402,192,139759,1,0,0:0:0:45:Snare.wav
256,192,139843,1,0,0:0:0:45:Snare.wav
109,192,139926,1,0,0:0:0:45:Snare.wav
475,192,140009,1,0,0:0:0:30:Crash.wav
256,192,140009,1,0,0:0:0:45:Snare.wav
36,192,140009,1,0,0:0:0:50:Kick.wav
402,192,140093,1,0,0:0:0:45:Snare.wav
182,192,140176,1,0,0:0:0:45:Snare.wav
329,192,140259,1,0,0:0:0:45:Snare.wav
475,192,140343,1,0,0:0:0:30:Crash.wav
182,192,140343,1,0,0:0:0:45:Snare.wav
36,192,140343,1,0,0:0:0:50:Kick.wav
402,192,140426,1,0,0:0:0:45:Snare.wav
256,192,140509,1,0,0:0:0:45:Snare.wav
475,192,140593,1,0,0:0:0:45:Snare.wav
329,192,140676,1,0,0:0:0:45:Snare.wav
182,192,140676,1,0,0:0:0:30:Crash.wav
36,192,140676,1,0,0:0:0:50:Kick.wav
109,192,141009,128,0,141176:0:0:0:0:
109,192,141259,128,0,141343:0:0:0:0:
475,192,141343,1,0,0:0:0:30:Crash.wav
329,192,141343,1,0,0:0:0:0:
36,192,141343,1,0,0:0:0:50:Kick.wav
256,192,141343,128,0,142259:0:0:0:0:
402,192,141509,1,0,0:0:0:0:
402,192,141676,1,0,0:0:0:0:
402,192,141843,1,0,0:0:0:0:
402,192,142009,1,0,0:0:0:0:
402,192,142176,1,0,0:0:0:0:
402,192,142343,1,0,0:0:0:0:
256,192,142343,128,0,142509:0:0:0:0:
402,192,142509,1,0,0:0:0:0:
256,192,142593,128,0,142676:0:0:0:0:
36,192,142676,1,0,0:0:0:0:
402,192,142676,128,0,142759:0:0:0:0:
109,192,142843,1,0,0:0:0:0:
475,192,142843,128,0,142926:0:0:0:0:
109,192,143009,1,0,0:0:0:0:
402,192,143009,128,0,143093:0:0:0:0:
109,192,143176,1,0,0:0:0:0:
329,192,143176,128,0,143259:0:0:0:0:
109,192,143343,1,0,0:0:0:0:
256,192,143343,128,0,143593:0:0:0:0:
109,192,143509,1,0,0:0:0:0:
109,192,143676,1,0,0:0:0:0:
182,192,143676,128,0,143843:0:0:0:0:
109,192,143843,1,0,0:0:0:0:
256,192,143926,128,0,144009:0:0:0:0:
475,192,144009,1,0,0:0:0:0:
109,192,144009,128,2,144259:0:0:0:0:
329,192,144176,1,0,0:0:0:0:
329,192,144343,1,0,0:0:0:0:
36,192,144343,128,0,144509:0:0:0:0:
329,192,144509,1,0,0:0:0:0:
182,192,144593,128,0,144676:0:0:0:0:
402,192,144676,1,0,0:0:0:0:
36,192,144676,128,2,144926:0:0:0:0:
256,192,144843,1,0,0:0:0:0:
256,192,145009,1,0,0:0:0:0:
109,192,145009,128,0,145176:0:0:0:0:
256,192,145176,1,0,0:0:0:0:
182,192,145259,128,0,145343:0:0:0:0:
329,192,145343,1,0,0:0:0:0:
36,192,145343,128,2,146259:0:0:0:0:
402,192,145509,1,0,0:0:0:0:
402,192,145676,1,0,0:0:0:0:
402,192,145843,1,0,0:0:0:0:
402,192,146009,1,0,0:0:0:0:
402,192,146176,1,0,0:0:0:0:
109,192,146343,128,0,146509:0:0:0:0:
402,192,146343,1,0,0:0:0:0:
402,192,146509,1,0,0:0:0:0:
109,192,146593,128,0,146676:0:0:0:0:
329,192,146676,1,0,0:0:0:0:
256,192,146676,128,0,147593:0:0:0:0:
402,192,146843,1,0,0:0:0:0:
402,192,147009,1,0,0:0:0:0:
402,192,147176,1,0,0:0:0:0:
402,192,147343,1,0,0:0:0:0:
402,192,147509,1,0,0:0:0:0:
402,192,147676,1,0,0:0:0:0:
256,192,147676,128,0,147843:0:0:0:0:
402,192,147843,1,0,0:0:0:0:
256,192,147926,128,0,148009:0:0:0:0:
36,192,148009,1,0,0:0:0:0:
402,192,148009,128,0,148093:0:0:0:0:
109,192,148176,1,0,0:0:0:0:
475,192,148176,128,0,148259:0:0:0:0:
109,192,148343,1,0,0:0:0:0:
402,192,148343,128,0,148426:0:0:0:0:
109,192,148509,1,0,0:0:0:0:
329,192,148509,128,0,148593:0:0:0:0:
109,192,148676,1,0,0:0:0:0:
256,192,148676,128,0,148926:0:0:0:0:
109,192,148843,1,0,0:0:0:0:
109,192,149009,1,0,0:0:0:0:
182,192,149009,128,0,149176:0:0:0:0:
109,192,149176,1,0,0:0:0:0:
256,192,149259,128,0,149343:0:0:0:0:
402,192,149343,1,0,0:0:0:0:
109,192,149343,128,2,149593:0:0:0:0:
329,192,149509,1,0,0:0:0:0:
329,192,149676,1,0,0:0:0:0:
36,192,149676,128,0,149843:0:0:0:0:
329,192,149843,1,0,0:0:0:0:
182,192,149926,128,0,150009:0:0:0:0:
36,192,150009,128,2,150259:0:0:0:0:
475,192,150009,1,0,0:0:0:0:
402,192,150176,1,0,0:0:0:0:
402,192,150343,1,0,0:0:0:0:
109,192,150343,128,0,150509:0:0:0:0:
402,192,150509,1,0,0:0:0:0:
182,192,150593,128,0,150676:0:0:0:0:
256,192,150676,1,0,0:0:0:0:
36,192,150676,128,2,151593:0:0:0:0:
329,192,150759,1,0,0:0:0:0:
475,192,150843,1,0,0:0:0:0:
329,192,150926,1,0,0:0:0:0:
475,192,151009,1,0,0:0:0:0:
329,192,151093,1,0,0:0:0:0:
475,192,151176,1,0,0:0:0:0:
329,192,151259,1,0,0:0:0:0:
182,192,151343,1,0,0:0:0:0:
256,192,151426,1,0,0:0:0:0:
402,192,151509,1,0,0:0:0:0:
256,192,151593,1,0,0:0:0:0:
402,192,151676,1,0,0:0:0:0:
256,192,151759,1,0,0:0:0:0:
402,192,151843,1,0,0:0:0:0:
256,192,151926,1,0,0:0:0:0:
329,192,152009,1,0,0:0:0:0:
36,192,152009,128,0,152176:0:0:0:0:
329,192,152259,1,0,0:0:0:0:
36,192,152259,128,0,152343:0:0:0:0:
182,192,152343,128,0,152426:0:0:0:0:
329,192,152509,128,0,152759:0:0:0:0:
36,192,152676,1,0,0:0:0:0:
329,192,152843,128,0,152926:0:0:0:0:
36,192,152926,1,0,0:0:0:0:
402,192,153009,128,0,153093:0:0:0:0:
329,192,153176,128,0,153259:0:0:0:0:
36,192,153343,1,0,0:0:0:0:
256,192,153509,1,0,0:0:0:0:
256,192,153676,1,0,0:0:0:0:
256,192,153843,1,0,0:0:0:0:
256,192,154009,1,0,0:0:0:0:
256,192,154176,1,0,0:0:0:0:
256,192,154343,1,0,0:0:0:0:
256,192,154509,1,0,0:0:0:0:
475,192,154676,1,0,0:0:0:0:
256,192,154843,1,0,0:0:0:0:
256,192,155009,1,0,0:0:0:0:
256,192,155176,1,0,0:0:0:0:
256,192,155343,1,0,0:0:0:0:
256,192,155509,1,0,0:0:0:0:
256,192,155676,1,0,0:0:0:0:
256,192,155843,1,0,0:0:0:0:
182,192,156009,1,0,0:0:0:0:
36,192,156009,128,0,156259:0:0:0:0:
256,192,156093,1,0,0:0:0:0:
402,192,156176,1,0,0:0:0:0:
256,192,156259,1,0,0:0:0:0:
402,192,156343,1,0,0:0:0:0:
36,192,156343,128,0,156509:0:0:0:0:
256,192,156426,1,0,0:0:0:0:
402,192,156509,1,0,0:0:0:0:
256,192,156593,1,0,0:0:0:0:
36,192,156593,1,0,0:0:0:0:
182,192,156676,1,0,0:0:0:0:
109,192,156676,128,2,156926:0:0:0:0:
329,192,156759,1,0,0:0:0:0:
475,192,156843,1,0,0:0:0:0:
329,192,156926,1,0,0:0:0:0:
475,192,157009,1,0,0:0:0:0:
109,192,157009,128,0,157176:0:0:0:0:
329,192,157093,1,0,0:0:0:0:
475,192,157176,1,0,0:0:0:0:
329,192,157259,1,0,0:0:0:0:
109,192,157259,1,0,0:0:0:0:
256,192,157343,1,0,0:0:0:0:
182,192,157343,128,2,157593:0:0:0:0:
475,192,157426,1,0,0:0:0:0:
329,192,157509,1,0,0:0:0:0:
475,192,157593,1,0,0:0:0:0:
329,192,157676,1,0,0:0:0:0:
182,192,157676,128,0,157843:0:0:0:0:
475,192,157759,1,0,0:0:0:0:
329,192,157843,1,0,0:0:0:0:
475,192,157926,1,0,0:0:0:0:
182,192,157926,1,0,0:0:0:0:
36,192,158009,1,0,0:0:0:0:
109,192,158009,128,2,158259:0:0:0:0:
402,192,158093,1,0,0:0:0:0:
256,192,158176,1,0,0:0:0:0:
402,192,158259,1,0,0:0:0:0:
109,192,158343,128,0,158509:0:0:0:0:
256,192,158343,1,0,0:0:0:0:
402,192,158426,1,0,0:0:0:0:
256,192,158509,1,0,0:0:0:0:
402,192,158593,1,0,0:0:0:0:
109,192,158593,1,0,0:0:0:0:
36,192,158676,1,0,0:0:0:0:
256,192,158676,128,2,158926:0:0:0:0:
182,192,158759,1,0,0:0:0:0:
329,192,158843,1,0,0:0:0:0:
36,192,158926,1,0,0:0:0:0:
475,192,159009,1,0,0:0:0:0:
256,192,159009,128,0,159176:0:0:0:0:
329,192,159093,1,0,0:0:0:0:
182,192,159176,1,0,0:0:0:0:
475,192,159259,1,0,0:0:0:0:
256,192,159259,1,0,0:0:0:0:
402,192,159343,1,0,0:0:0:0:
329,192,159343,128,2,159593:0:0:0:0:
36,192,159426,1,0,0:0:0:0:
182,192,159509,1,0,0:0:0:0:
36,192,159593,1,0,0:0:0:0:
182,192,159676,1,0,0:0:0:0:
329,192,159676,128,0,159843:0:0:0:0:
36,192,159759,1,0,0:0:0:0:
182,192,159843,1,0,0:0:0:0:
329,192,159926,1,0,0:0:0:0:
36,192,159926,1,0,0:0:0:0:
475,192,160009,1,0,0:0:0:0:
402,192,160009,128,2,160593:0:0:0:0:
109,192,160093,1,0,0:0:0:0:
256,192,160176,1,0,0:0:0:0:
109,192,160259,1,0,0:0:0:0:
256,192,160343,1,0,0:0:0:0:
109,192,160426,1,0,0:0:0:0:
256,192,160509,1,0,0:0:0:0:
109,192,160593,1,0,0:0:0:0:
36,192,160676,1,0,0:0:0:0:
475,192,160676,128,2,160926:0:0:0:0:
182,192,160759,1,0,0:0:0:0:
329,192,160843,1,0,0:0:0:0:
182,192,160926,1,0,0:0:0:0:
329,192,161009,1,0,0:0:0:0:
475,192,161009,128,0,161176:0:0:0:0:
182,192,161093,1,0,0:0:0:0:
329,192,161176,1,0,0:0:0:0:
182,192,161259,1,0,0:0:0:0:
475,192,161259,1,0,0:0:0:0:
109,192,161343,1,0,0:0:0:0:
36,192,161343,128,2,161593:0:0:0:0:
329,192,161426,1,0,0:0:0:0:
182,192,161509,1,0,0:0:0:0:
329,192,161593,1,0,0:0:0:0:
182,192,161676,1,0,0:0:0:0:
36,192,161676,128,0,161843:0:0:0:0:
329,192,161759,1,0,0:0:0:0:
182,192,161843,1,0,0:0:0:0:
329,192,161926,1,0,0:0:0:0:
36,192,161926,1,0,0:0:0:0:
402,192,162009,1,0,0:0:0:0:
475,192,162009,128,2,162259:0:0:0:0:
182,192,162093,1,0,0:0:0:0:
329,192,162176,1,0,0:0:0:0:
182,192,162259,1,0,0:0:0:0:
329,192,162343,1,0,0:0:0:0:
475,192,162343,128,0,162509:0:0:0:0:
182,192,162426,1,0,0:0:0:0:
329,192,162509,1,0,0:0:0:0:
182,192,162593,1,0,0:0:0:0:
475,192,162593,1,0,0:0:0:0:
36,192,162676,1,0,0:0:0:0:
109,192,162676,128,2,162926:0:0:0:0:
402,192,162759,1,0,0:0:0:0:
256,192,162843,1,0,0:0:0:0:
402,192,162926,1,0,0:0:0:0:
256,192,163009,1,0,0:0:0:0:
109,192,163009,128,0,163176:0:0:0:0:
402,192,163093,1,0,0:0:0:0:
256,192,163176,1,0,0:0:0:0:
402,192,163259,1,0,0:0:0:0:
109,192,163259,1,0,0:0:0:0:
182,192,163343,1,0,0:0:0:0:
402,192,163343,128,2,163593:0:0:0:0:
109,192,163426,1,0,0:0:0:0:
256,192,163509,5,0,0:0:0:0:
109,192,163593,1,0,0:0:0:0:
256,192,163676,1,0,0:0:0:0:
402,192,163676,128,0,163843:0:0:0:0:
109,192,163759,1,0,0:0:0:0:
256,192,163843,1,0,0:0:0:0:
109,192,163926,1,0,0:0:0:0:
402,192,163926,1,0,0:0:0:0:
329,192,164009,1,0,0:0:0:0:
475,192,164009,128,0,164593:0:0:0:0:
109,192,164009,128,2,164593:0:0:0:0:
402,192,164093,1,0,0:0:0:0:
182,192,164176,1,0,0:0:0:0:
402,192,164259,1,0,0:0:0:0:
182,192,164343,1,0,0:0:0:0:
402,192,164426,1,0,0:0:0:0:
182,192,164509,1,0,0:0:0:0:
402,192,164593,1,0,0:0:0:0:
109,192,164676,5,0,0:0:0:50:Kick.wav
329,192,164676,1,0,0:0:0:0:
475,192,164676,1,0,0:0:0:0:
182,192,164759,1,0,0:0:0:0:
402,192,164843,1,0,0:0:0:0:
182,192,164926,1,0,0:0:0:0:
329,192,165009,1,0,0:0:0:0:
475,192,165009,1,0,0:0:0:0:
109,192,165009,1,0,0:0:0:50:Kick.wav
256,192,165093,1,0,0:0:0:0:
475,192,165176,1,0,0:0:0:0:
182,192,165259,1,0,0:0:0:0:
36,192,165343,1,0,0:0:0:30:Crash.wav
329,192,165343,1,0,0:0:0:50:Kick.wav
475,192,165509,1,0,0:0:0:0:
109,192,165509,1,0,0:0:0:50:Kick.wav
329,192,165593,1,0,0:0:0:0:
475,192,165676,1,0,0:0:0:0:
182,192,165676,1,0,0:0:0:50:Kick.wav
475,192,165843,1,0,0:0:0:0:
109,192,165843,1,0,0:0:0:50:Kick.wav
329,192,165926,1,0,0:0:0:0:
475,192,166009,1,0,0:0:0:0:
256,192,166009,1,0,0:0:0:30:Crash.wav
36,192,166009,1,0,0:0:0:50:Kick.wav
475,192,166176,1,0,0:0:0:0:
109,192,166176,1,0,0:0:0:50:Kick.wav
329,192,166259,1,0,0:0:0:0:
475,192,166343,1,0,0:0:0:0:
182,192,166343,1,0,0:0:0:50:Kick.wav
475,192,166509,1,0,0:0:0:0:
109,192,166509,1,0,0:0:0:50:Kick.wav
329,192,166593,1,0,0:0:0:0:
475,192,166676,1,0,0:0:0:30:Crash.wav
109,192,166676,1,0,0:0:0:50:Kick.wav
36,192,166759,1,0,0:0:0:50:Kick.wav
182,192,166843,1,0,0:0:0:50:Kick.wav
329,192,166926,1,0,0:0:0:50:Kick.wav
475,192,167009,1,0,0:0:0:30:Crash.wav
109,192,167009,1,0,0:0:0:50:Kick.wav
329,192,167093,1,0,0:0:0:50:Kick.wav
182,192,167176,1,0,0:0:0:50:Kick.wav
36,192,167259,1,0,0:0:0:50:Kick.wav
109,192,167343,1,0,0:0:0:30:Crash.wav
475,192,167343,1,0,0:0:0:50:Kick.wav
36,192,167426,1,0,0:0:0:50:Kick.wav
182,192,167509,1,0,0:0:0:50:Kick.wav
329,192,167593,1,0,0:0:0:50:Kick.wav
109,192,167676,1,0,0:0:0:30:Crash.wav
475,192,167676,1,0,0:0:0:50:Kick.wav
329,192,167759,1,0,0:0:0:50:Kick.wav
182,192,167843,1,0,0:0:0:50:Kick.wav
36,192,167926,1,0,0:0:0:50:Kick.wav
475,192,168009,1,0,0:0:0:0:
329,192,168009,1,0,0:0:0:0:
329,192,168176,1,0,0:0:0:0:
36,192,168343,1,0,0:0:0:0:
329,192,168343,1,0,0:0:0:0:
329,192,168509,1,0,0:0:0:0:
475,192,168593,1,0,0:0:0:0:
109,192,168676,128,0,169009:0:0:0:0:
182,192,168676,1,0,0:0:0:0:
475,192,168759,1,0,0:0:0:0:
475,192,168843,1,0,0:0:0:0:
36,192,169009,128,0,169176:0:0:0:0:
256,192,169009,128,0,169176:0:0:0:0:
256,192,169259,1,0,0:0:0:0:
36,192,169259,1,0,0:0:0:0:
329,192,169343,128,2,169593:0:0:0:0:
475,192,169343,1,0,0:0:0:0:
109,192,169343,128,0,169593:0:0:0:0:
182,192,169343,1,0,0:0:0:50:Kick.wav
402,192,169343,1,0,0:0:0:30:Crash.wav
256,192,169426,1,0,0:0:0:0:
36,192,169509,1,0,0:0:0:0:
182,192,169593,1,0,0:0:0:0:
475,192,169676,1,0,0:0:0:0:
329,192,169676,1,0,0:0:0:0:
109,192,169676,1,0,0:0:0:50:Kick.wav
182,192,169759,1,0,0:0:0:0:
329,192,169843,1,0,0:0:0:0:
36,192,169926,1,0,0:0:0:0:
402,192,169926,1,0,0:0:0:0:
182,192,169926,1,0,0:0:0:0:
182,192,170009,128,0,170259:0:0:0:0:
475,192,170009,1,0,0:0:0:0:
109,192,170009,1,0,0:0:0:50:Kick.wav
402,192,170009,128,2,170259:0:0:0:0:
329,192,170093,1,0,0:0:0:0:
36,192,170176,1,0,0:0:0:0:
256,192,170259,1,0,0:0:0:0:
182,192,170343,1,0,0:0:0:0:
402,192,170343,1,0,0:0:0:0:
36,192,170343,1,0,0:0:0:50:Kick.wav
256,192,170426,1,0,0:0:0:0:
402,192,170509,1,0,0:0:0:0:
475,192,170593,1,0,0:0:0:0:
109,192,170593,1,0,0:0:0:0:
256,192,170593,1,0,0:0:0:0:
256,192,170676,128,0,170926:0:0:0:0:
182,192,170676,1,0,0:0:0:0:
36,192,170676,1,0,0:0:0:50:Kick.wav
475,192,170676,128,2,170926:0:0:0:0:
402,192,170759,1,0,0:0:0:0:
109,192,170843,1,0,0:0:0:0:
329,192,170926,1,0,0:0:0:0:
475,192,171009,1,0,0:0:0:0:
256,192,171009,1,0,0:0:0:0:
36,192,171009,1,0,0:0:0:50:Kick.wav
329,192,171093,1,0,0:0:0:0:
182,192,171176,1,0,0:0:0:0:
475,192,171259,1,0,0:0:0:0:
36,192,171259,1,0,0:0:0:0:
329,192,171259,1,0,0:0:0:0:
36,192,171343,128,0,171593:0:0:0:0:
402,192,171343,1,0,0:0:0:0:
182,192,171343,1,0,0:0:0:50:Kick.wav
329,192,171343,128,2,171593:0:0:0:0:
256,192,171426,1,0,0:0:0:0:
475,192,171509,1,0,0:0:0:0:
182,192,171509,1,0,0:0:0:50:Kick.wav
402,192,171593,1,0,0:0:0:0:
182,192,171676,1,0,0:0:0:0:
329,192,171676,1,0,0:0:0:0:
36,192,171676,1,0,0:0:0:50:Kick.wav
475,192,171759,1,0,0:0:0:0:
256,192,171843,1,0,0:0:0:0:
36,192,171843,1,0,0:0:0:50:Kick.wav
475,192,171926,1,0,0:0:0:0:
329,192,171926,1,0,0:0:0:0:
109,192,171926,1,0,0:0:0:0:
109,192,172009,128,0,172259:0:0:0:0:
182,192,172009,1,0,0:0:0:0:
36,192,172009,1,0,0:0:0:50:Kick.wav
329,192,172009,128,2,172259:0:0:0:0:
475,192,172093,1,0,0:0:0:0:
182,192,172176,1,0,0:0:0:0:
475,192,172259,1,0,0:0:0:0:
329,192,172343,1,0,0:0:0:0:
109,192,172343,1,0,0:0:0:0:
36,192,172343,1,0,0:0:0:50:Kick.wav
256,192,172426,1,0,0:0:0:0:
402,192,172509,1,0,0:0:0:0:
329,192,172593,1,0,0:0:0:0:
182,192,172593,1,0,0:0:0:0:
109,192,172593,1,0,0:0:0:0:
402,192,172676,128,2,172926:0:0:0:0:
475,192,172676,1,0,0:0:0:0:
36,192,172676,1,0,0:0:0:50:Kick.wav
182,192,172676,128,0,172926:0:0:0:0:
256,192,172759,1,0,0:0:0:0:
475,192,172843,1,0,0:0:0:0:
256,192,172926,1,0,0:0:0:0:
402,192,173009,1,0,0:0:0:0:
182,192,173009,1,0,0:0:0:0:
109,192,173009,1,0,0:0:0:50:Kick.wav
329,192,173093,1,0,0:0:0:0:
475,192,173176,1,0,0:0:0:0:
402,192,173259,1,0,0:0:0:0:
182,192,173259,1,0,0:0:0:0:
256,192,173259,1,0,0:0:0:0:
182,192,173343,128,0,173926:0:0:0:0:
475,192,173343,1,0,0:0:0:0:
109,192,173343,1,0,0:0:0:50:Kick.wav
402,192,173343,128,2,173926:0:0:0:0:
329,192,173426,1,0,0:0:0:0:
36,192,173509,1,0,0:0:0:0:
256,192,173593,1,0,0:0:0:0:
475,192,173676,1,0,0:0:0:0:
109,192,173676,1,0,0:0:0:50:Kick.wav
329,192,173759,1,0,0:0:0:0:
36,192,173843,1,0,0:0:0:0:
256,192,173926,1,0,0:0:0:0:
475,192,174009,128,2,174259:0:0:0:0:
329,192,174009,1,0,0:0:0:0:
182,192,174009,1,0,0:0:0:50:Kick.wav
109,192,174009,128,0,174259:0:0:0:0:
402,192,174093,1,0,0:0:0:0:
256,192,174093,1,0,0:0:0:50:Kick.wav
329,192,174176,1,0,0:0:0:0:
182,192,174176,1,0,0:0:0:50:Kick.wav
402,192,174259,1,0,0:0:0:0:
256,192,174259,1,0,0:0:0:50:Kick.wav
182,192,174343,128,0,174509:0:0:0:0:
475,192,174343,1,0,0:0:0:0:
329,192,174343,1,0,0:0:0:50:Kick.wav
36,192,174343,128,0,174509:0:0:0:0:
402,192,174426,1,0,0:0:0:0:
475,192,174509,1,0,0:0:0:0:
329,192,174509,1,0,0:0:0:50:Kick.wav
182,192,174593,1,0,0:0:0:0:
36,192,174593,1,0,0:0:0:0:
256,192,174676,128,0,174926:0:0:0:0:
475,192,174676,1,0,0:0:0:0:
329,192,174676,1,0,0:0:0:50:Kick.wav
109,192,174676,128,0,174926:0:0:0:0:
402,192,174759,1,0,0:0:0:0:
182,192,174843,1,0,0:0:0:0:
329,192,174926,1,0,0:0:0:0:
475,192,175009,1,0,0:0:0:0:
256,192,175009,1,0,0:0:0:0:
36,192,175009,1,0,0:0:0:50:Kick.wav
402,192,175093,1,0,0:0:0:0:
109,192,175176,1,0,0:0:0:0:
475,192,175259,1,0,0:0:0:0:
329,192,175259,1,0,0:0:0:0:
182,192,175259,1,0,0:0:0:0:
329,192,175343,128,2,175593:0:0:0:0:
402,192,175343,1,0,0:0:0:0:
36,192,175343,1,0,0:0:0:50:Kick.wav
182,192,175343,128,0,175593:0:0:0:0:
256,192,175426,1,0,0:0:0:0:
109,192,175509,1,0,0:0:0:0:
475,192,175593,1,0,0:0:0:0:
182,192,175676,1,0,0:0:0:0:
329,192,175676,1,0,0:0:0:0:
36,192,175676,1,0,0:0:0:50:Kick.wav
475,192,175759,1,0,0:0:0:0:
182,192,175843,1,0,0:0:0:0:
475,192,175926,1,0,0:0:0:0:
329,192,175926,1,0,0:0:0:0:
109,192,175926,1,0,0:0:0:0:
475,192,176009,128,2,176259:0:0:0:0:
256,192,176009,1,0,0:0:0:0:
36,192,176009,1,0,0:0:0:50:Kick.wav
109,192,176009,128,0,176259:0:0:0:0:
402,192,176093,1,0,0:0:0:0:
256,192,176176,1,0,0:0:0:0:
402,192,176259,1,0,0:0:0:0:
475,192,176343,1,0,0:0:0:0:
109,192,176343,1,0,0:0:0:0:
329,192,176343,1,0,0:0:0:50:Kick.wav
402,192,176426,1,0,0:0:0:0:
256,192,176509,1,0,0:0:0:0:
329,192,176593,1,0,0:0:0:0:
182,192,176593,1,0,0:0:0:0:
36,192,176593,1,0,0:0:0:0:
182,192,176676,128,0,176926:0:0:0:0:
475,192,176676,1,0,0:0:0:0:
109,192,176676,1,0,0:0:0:50:Kick.wav
329,192,176676,128,2,176926:0:0:0:0:
36,192,176759,1,0,0:0:0:0:
256,192,176843,1,0,0:0:0:0:
109,192,176926,1,0,0:0:0:0:
475,192,177009,1,0,0:0:0:0:
329,192,177009,1,0,0:0:0:0:
182,192,177009,1,0,0:0:0:50:Kick.wav
109,192,177051,1,0,0:0:0:50:Kick.wav
36,192,177093,1,0,0:0:0:50:Kick.wav
182,192,177134,1,0,0:0:0:50:Kick.wav
475,192,177176,1,0,0:0:0:0:
329,192,177176,1,0,0:0:0:50:Kick.wav
475,192,177259,1,0,0:0:0:0:
109,192,177259,1,0,0:0:0:0:
256,192,177259,1,0,0:0:0:0:
109,192,177343,128,0,177593:0:0:0:0:
475,192,177343,1,0,0:0:0:0:
36,192,177343,1,0,0:0:0:50:Kick.wav
256,192,177343,128,2,177593:0:0:0:0:
402,192,177426,1,0,0:0:0:0:
329,192,177509,1,0,0:0:0:0:
475,192,177593,1,0,0:0:0:0:
402,192,177676,1,0,0:0:0:0:
256,192,177676,1,0,0:0:0:0:
109,192,177676,1,0,0:0:0:50:Kick.wav
36,192,177759,1,0,0:0:0:0:
329,192,177843,1,0,0:0:0:0:
182,192,177926,1,0,0:0:0:0:
402,192,177926,1,0,0:0:0:0:
36,192,177926,1,0,0:0:0:0:
402,192,178009,128,2,178259:0:0:0:0:
475,192,178009,1,0,0:0:0:0:
256,192,178009,1,0,0:0:0:50:Kick.wav
36,192,178009,128,0,178259:0:0:0:0:
329,192,178093,1,0,0:0:0:0:
182,192,178176,1,0,0:0:0:0:
475,192,178259,1,0,0:0:0:0:
402,192,178343,1,0,0:0:0:0:
182,192,178343,1,0,0:0:0:0:
36,192,178343,1,0,0:0:0:50:Kick.wav
329,192,178426,1,0,0:0:0:0:
109,192,178509,1,0,0:0:0:0:
402,192,178593,1,0,0:0:0:0:
256,192,178593,1,0,0:0:0:0:
109,192,178676,128,2,180593:0:0:0:0:
182,192,178676,1,0,0:0:0:0:
329,192,178676,1,0,0:0:0:30:Crash.wav
36,192,178676,1,0,0:0:0:50:Kick.wav
475,192,178676,1,0,0:0:0:45:Snare.wav
256,192,178759,1,0,0:0:0:0:
329,192,178843,1,0,0:0:0:0:
402,192,178926,1,0,0:0:0:0:
329,192,179009,1,0,0:0:0:0:
475,192,179009,1,0,0:0:0:45:Snare.wav
182,192,179009,1,0,0:0:0:50:Kick.wav
256,192,179093,1,0,0:0:0:0:
402,192,179176,1,0,0:0:0:0:
256,192,179259,1,0,0:0:0:0:
329,192,179343,1,0,0:0:0:0:
475,192,179343,1,0,0:0:0:45:Snare.wav
182,192,179343,1,0,0:0:0:50:Kick.wav
402,192,179426,1,0,0:0:0:0:
329,192,179509,1,0,0:0:0:0:
256,192,179593,1,0,0:0:0:0:
329,192,179676,1,0,0:0:0:0:
475,192,179676,1,0,0:0:0:45:Snare.wav
182,192,179676,1,0,0:0:0:50:Kick.wav
256,192,179759,1,0,0:0:0:0:
329,192,179843,1,0,0:0:0:0:
402,192,179926,1,0,0:0:0:0:
329,192,180009,1,0,0:0:0:0:
475,192,180009,1,0,0:0:0:45:Snare.wav
182,192,180009,1,0,0:0:0:50:Kick.wav
256,192,180093,1,0,0:0:0:0:
329,192,180176,1,0,0:0:0:0:
402,192,180259,1,0,0:0:0:0:
329,192,180343,1,0,0:0:0:0:
475,192,180343,1,0,0:0:0:45:Snare.wav
182,192,180343,1,0,0:0:0:50:Kick.wav
256,192,180426,1,0,0:0:0:0:
402,192,180509,1,0,0:0:0:0:
256,192,180593,1,0,0:0:0:0:
329,192,180676,1,0,0:0:0:0:
475,192,180676,1,0,0:0:0:45:Snare.wav
109,192,180676,1,0,0:0:0:50:Kick.wav
256,192,180759,1,0,0:0:0:0:
182,192,180843,1,0,0:0:0:0:
402,192,180843,1,0,0:0:0:45:Snare.wav
36,192,180843,1,0,0:0:0:50:Kick.wav
256,192,180926,1,0,0:0:0:0:
329,192,181009,1,0,0:0:0:0:
475,192,181009,1,0,0:0:0:45:Snare.wav
109,192,181009,1,0,0:0:0:50:Kick.wav
256,192,181093,1,0,0:0:0:0:
182,192,181176,1,0,0:0:0:0:
402,192,181176,1,0,0:0:0:45:Snare.wav
36,192,181176,1,0,0:0:0:50:Kick.wav
256,192,181259,1,0,0:0:0:0:
109,192,181343,1,0,0:0:0:0:
402,192,181343,128,2,183259:0:0:0:0:
329,192,181343,1,0,0:0:0:50:Kick.wav
475,192,181343,1,0,0:0:0:45:Snare.wav
256,192,181426,1,0,0:0:0:0:
182,192,181509,1,0,0:0:0:0:
109,192,181593,1,0,0:0:0:0:
182,192,181676,1,0,0:0:0:0:
36,192,181676,1,0,0:0:0:45:Snare.wav
329,192,181676,1,0,0:0:0:50:Kick.wav
256,192,181759,1,0,0:0:0:0:
109,192,181843,1,0,0:0:0:0:
256,192,181926,1,0,0:0:0:0:
182,192,182009,1,0,0:0:0:0:
36,192,182009,1,0,0:0:0:45:Snare.wav
329,192,182009,1,0,0:0:0:50:Kick.wav
109,192,182093,1,0,0:0:0:0:
182,192,182176,1,0,0:0:0:0:
256,192,182259,1,0,0:0:0:0:
182,192,182343,1,0,0:0:0:0:
36,192,182343,1,0,0:0:0:45:Snare.wav
329,192,182343,1,0,0:0:0:50:Kick.wav
256,192,182426,1,0,0:0:0:0:
182,192,182509,1,0,0:0:0:0:
109,192,182593,1,0,0:0:0:0:
182,192,182676,1,0,0:0:0:0:
36,192,182676,1,0,0:0:0:45:Snare.wav
329,192,182676,1,0,0:0:0:50:Kick.wav
256,192,182759,1,0,0:0:0:0:
182,192,182843,1,0,0:0:0:0:
109,192,182926,1,0,0:0:0:0:
182,192,183009,1,0,0:0:0:0:
36,192,183009,1,0,0:0:0:45:Snare.wav
329,192,183009,1,0,0:0:0:50:Kick.wav
256,192,183093,1,0,0:0:0:0:
109,192,183176,1,0,0:0:0:0:
256,192,183259,1,0,0:0:0:0:
182,192,183343,1,0,0:0:0:0:
36,192,183343,1,0,0:0:0:45:Snare.wav
329,192,183343,1,0,0:0:0:50:Kick.wav
256,192,183426,1,0,0:0:0:0:
402,192,183426,1,0,0:0:0:50:Kick.wav
329,192,183509,1,0,0:0:0:0:
475,192,183509,1,0,0:0:0:50:Kick.wav
256,192,183593,1,0,0:0:0:0:
402,192,183593,1,0,0:0:0:50:Kick.wav
182,192,183676,1,0,0:0:0:0:
36,192,183676,1,0,0:0:0:45:Snare.wav
329,192,183676,1,0,0:0:0:50:Kick.wav
256,192,183759,1,0,0:0:0:0:
329,192,183843,1,0,0:0:0:0:
109,192,183843,1,0,0:0:0:50:Kick.wav
475,192,183843,1,0,0:0:0:45:Snare.wav
402,192,184009,1,0,0:0:0:0:
475,192,184009,128,2,185259:0:0:0:0:
36,192,184009,1,0,0:0:0:50:Kick.wav
182,192,184009,1,0,0:0:0:45:Snare.wav
329,192,184093,1,0,0:0:0:0:
256,192,184176,1,0,0:0:0:0:
109,192,184176,1,0,0:0:0:45:Snare.wav
36,192,184176,1,0,0:0:0:50:Kick.wav
329,192,184259,1,0,0:0:0:0:
402,192,184343,1,0,0:0:0:0:
182,192,184343,1,0,0:0:0:45:Snare.wav
36,192,184343,1,0,0:0:0:50:Kick.wav
329,192,184426,1,0,0:0:0:0:
256,192,184509,1,0,0:0:0:0:
109,192,184509,1,0,0:0:0:45:Snare.wav
36,192,184509,1,0,0:0:0:50:Kick.wav
329,192,184593,1,0,0:0:0:0:
402,192,184676,1,0,0:0:0:0:
182,192,184676,1,0,0:0:0:45:Snare.wav
36,192,184676,1,0,0:0:0:50:Kick.wav
329,192,184759,1,0,0:0:0:0:
256,192,184843,1,0,0:0:0:0:
109,192,184843,1,0,0:0:0:45:Snare.wav
36,192,184843,1,0,0:0:0:50:Kick.wav
329,192,184926,1,0,0:0:0:0:
402,192,185009,1,0,0:0:0:0:
182,192,185009,1,0,0:0:0:45:Snare.wav
36,192,185009,1,0,0:0:0:50:Kick.wav
256,192,185093,1,0,0:0:0:0:
329,192,185176,1,0,0:0:0:0:
109,192,185176,1,0,0:0:0:45:Snare.wav
36,192,185176,1,0,0:0:0:50:Kick.wav
402,192,185259,1,0,0:0:0:0:
36,192,185343,128,2,186593:0:0:0:0:
109,192,185343,1,0,0:0:0:0:
475,192,185343,1,0,0:0:0:50:Kick.wav
329,192,185343,1,0,0:0:0:45:Snare.wav
182,192,185426,1,0,0:0:0:0:
256,192,185509,1,0,0:0:0:0:
402,192,185509,1,0,0:0:0:45:Snare.wav
475,192,185509,1,0,0:0:0:50:Kick.wav
182,192,185593,1,0,0:0:0:0:
109,192,185676,1,0,0:0:0:0:
329,192,185676,1,0,0:0:0:45:Snare.wav
475,192,185676,1,0,0:0:0:50:Kick.wav
182,192,185759,1,0,0:0:0:0:
256,192,185843,1,0,0:0:0:0:
402,192,185843,1,0,0:0:0:45:Snare.wav
475,192,185843,1,0,0:0:0:50:Kick.wav
182,192,185926,1,0,0:0:0:0:
109,192,186009,1,0,0:0:0:0:
329,192,186009,1,0,0:0:0:45:Snare.wav
475,192,186009,1,0,0:0:0:50:Kick.wav
182,192,186093,1,0,0:0:0:0:
256,192,186176,1,0,0:0:0:0:
402,192,186176,1,0,0:0:0:45:Snare.wav
475,192,186176,1,0,0:0:0:50:Kick.wav
182,192,186259,1,0,0:0:0:0:
109,192,186343,1,0,0:0:0:0:
329,192,186343,1,0,0:0:0:45:Snare.wav
475,192,186343,1,0,0:0:0:50:Kick.wav
182,192,186426,1,0,0:0:0:0:
256,192,186509,1,0,0:0:0:0:
402,192,186509,1,0,0:0:0:45:Snare.wav
475,192,186509,1,0,0:0:0:50:Kick.wav
182,192,186593,1,0,0:0:0:0:
329,192,186676,1,0,0:0:0:30:Crash.wav
256,192,186676,128,2,189343:0:0:0:0:
36,192,186676,1,0,0:0:0:50:Kick.wav
475,192,186676,1,0,0:0:0:45:Snare.wav
402,192,186759,1,0,0:0:0:45:Snare.wav
109,192,186759,1,0,0:0:0:50:Kick.wav
475,192,186843,1,0,0:0:0:45:Snare.wav
182,192,186843,1,0,0:0:0:50:Kick.wav
329,192,186926,1,0,0:0:0:45:Snare.wav
36,192,186926,1,0,0:0:0:50:Kick.wav
402,192,187009,1,0,0:0:0:45:Snare.wav
109,192,187009,1,0,0:0:0:50:Kick.wav
475,192,187093,1,0,0:0:0:45:Snare.wav
182,192,187093,1,0,0:0:0:50:Kick.wav
329,192,187176,1,0,0:0:0:45:Snare.wav
36,192,187176,1,0,0:0:0:50:Kick.wav
402,192,187259,1,0,0:0:0:45:Snare.wav
109,192,187259,1,0,0:0:0:50:Kick.wav
36,192,187343,1,0,0:0:0:30:Crash.wav
475,192,187343,1,0,0:0:0:45:Snare.wav
182,192,187343,1,0,0:0:0:50:Kick.wav
402,192,187426,1,0,0:0:0:45:Snare.wav
109,192,187426,1,0,0:0:0:50:Kick.wav
329,192,187509,1,0,0:0:0:45:Snare.wav
36,192,187509,1,0,0:0:0:50:Kick.wav
475,192,187593,1,0,0:0:0:45:Snare.wav
182,192,187593,1,0,0:0:0:50:Kick.wav
402,192,187676,1,0,0:0:0:45:Snare.wav
109,192,187676,1,0,0:0:0:50:Kick.wav
329,192,187759,1,0,0:0:0:45:Snare.wav
36,192,187759,1,0,0:0:0:50:Kick.wav
475,192,187843,1,0,0:0:0:45:Snare.wav
182,192,187843,1,0,0:0:0:50:Kick.wav
402,192,187926,1,0,0:0:0:45:Snare.wav
109,192,187926,1,0,0:0:0:50:Kick.wav
329,192,188009,1,0,0:0:0:30:Crash.wav
475,192,188009,1,0,0:0:0:45:Snare.wav
36,192,188009,1,0,0:0:0:50:Kick.wav
402,192,188093,1,0,0:0:0:45:Snare.wav
182,192,188093,1,0,0:0:0:50:Kick.wav
475,192,188176,1,0,0:0:0:45:Snare.wav
36,192,188176,1,0,0:0:0:50:Kick.wav
329,192,188259,1,0,0:0:0:45:Snare.wav
109,192,188259,1,0,0:0:0:50:Kick.wav
182,192,188343,1,0,0:0:0:30:Crash.wav
475,192,188343,1,0,0:0:0:45:Snare.wav
36,192,188343,1,0,0:0:0:50:Kick.wav
329,192,188426,1,0,0:0:0:45:Snare.wav
109,192,188426,1,0,0:0:0:50:Kick.wav
475,192,188509,1,0,0:0:0:45:Snare.wav
36,192,188509,1,0,0:0:0:50:Kick.wav
402,192,188593,1,0,0:0:0:45:Snare.wav
182,192,188593,1,0,0:0:0:50:Kick.wav
329,192,188676,1,0,0:0:0:30:Crash.wav
475,192,188676,1,0,0:0:0:45:Snare.wav
36,192,188676,1,0,0:0:0:50:Kick.wav
402,192,188759,1,0,0:0:0:45:Snare.wav
182,192,188759,1,0,0:0:0:50:Kick.wav
475,192,188843,1,0,0:0:0:45:Snare.wav
36,192,188843,1,0,0:0:0:50:Kick.wav
329,192,188926,1,0,0:0:0:45:Snare.wav
109,192,188926,1,0,0:0:0:50:Kick.wav
182,192,189009,1,0,0:0:0:30:Crash.wav
475,192,189009,1,0,0:0:0:45:Snare.wav
36,192,189009,1,0,0:0:0:50:Kick.wav
329,192,189093,1,0,0:0:0:45:Snare.wav
109,192,189093,1,0,0:0:0:50:Kick.wav
475,192,189176,1,0,0:0:0:45:Snare.wav
36,192,189176,1,0,0:0:0:50:Kick.wav
402,192,189259,1,0,0:0:0:45:Snare.wav
182,192,189259,1,0,0:0:0:50:Kick.wav
329,192,189343,1,0,0:0:0:30:Crash.wav
475,192,189343,1,0,0:0:0:45:Snare.wav
36,192,189343,1,0,0:0:0:50:Kick.wav
475,192,189509,1,0,0:0:0:0:
329,192,189593,1,0,0:0:0:0:
256,192,189593,128,0,189759:0:0:0:0:
36,192,189676,1,0,0:0:0:50:Kick.wav
402,192,189676,1,0,0:0:0:0:
402,192,189843,1,0,0:0:0:0:
109,192,189843,1,0,0:0:0:0:
475,192,189926,1,0,0:0:0:0:
36,192,190009,1,0,0:0:0:50:Kick.wav
329,192,190009,1,0,0:0:0:0:
182,192,190009,1,0,0:0:0:0:
475,192,190176,1,0,0:0:0:0:
109,192,190176,1,0,0:0:0:0:
329,192,190259,1,0,0:0:0:0:
36,192,190343,1,0,0:0:0:50:Kick.wav
402,192,190343,1,0,0:0:0:0:
256,192,190343,128,0,190509:0:0:0:0:
402,192,190509,1,0,0:0:0:0:
109,192,190509,1,0,0:0:0:0:
475,192,190593,1,0,0:0:0:0:
36,192,190676,1,0,0:0:0:50:Kick.wav
329,192,190676,1,0,0:0:0:0:
182,192,190676,1,0,0:0:0:0:
475,192,190843,1,0,0:0:0:0:
109,192,190843,1,0,0:0:0:0:
329,192,190926,1,0,0:0:0:0:
36,192,191009,1,0,0:0:0:50:Kick.wav
402,192,191009,1,0,0:0:0:0:
256,192,191009,128,0,191176:0:0:0:0:
402,192,191176,1,0,0:0:0:0:
109,192,191176,1,0,0:0:0:0:
475,192,191259,1,0,0:0:0:0:
182,192,191259,1,0,0:0:0:0:
36,192,191343,1,0,0:0:0:50:Kick.wav
256,192,191343,1,0,0:0:0:0:
329,192,191343,128,0,191676:0:0:0:0:
36,192,191509,1,0,0:0:0:50:Kick.wav
475,192,191509,1,0,0:0:0:0:
402,192,191593,1,0,0:0:0:0:
109,192,191676,1,0,0:0:0:50:Kick.wav
256,192,191676,1,0,0:0:0:0:
182,192,191676,128,0,192009:0:0:0:0:
475,192,191676,128,0,191843:0:0:0:0:
109,192,191843,1,0,0:0:0:50:Kick.wav
329,192,191843,1,0,0:0:0:0:
402,192,191926,1,0,0:0:0:0:
36,192,192009,1,0,0:0:0:50:Kick.wav
475,192,192009,1,0,0:0:0:0:
256,192,192009,1,0,0:0:0:0:
329,192,192176,1,0,0:0:0:0:
475,192,192259,1,0,0:0:0:0:
182,192,192259,128,0,192426:0:0:0:0:
36,192,192343,1,0,0:0:0:50:Kick.wav
329,192,192343,1,0,0:0:0:0:
402,192,192509,1,0,0:0:0:0:
109,192,192509,1,0,0:0:0:0:
256,192,192593,1,0,0:0:0:0:
36,192,192676,1,0,0:0:0:50:Kick.wav
402,192,192676,1,0,0:0:0:0:
182,192,192676,1,0,0:0:0:0:
329,192,192843,1,0,0:0:0:0:
109,192,192843,1,0,0:0:0:0:
475,192,192926,1,0,0:0:0:0:
36,192,193009,1,0,0:0:0:50:Kick.wav
329,192,193009,1,0,0:0:0:0:
182,192,193009,128,0,193176:0:0:0:0:
402,192,193176,1,0,0:0:0:0:
109,192,193176,1,0,0:0:0:0:
256,192,193259,1,0,0:0:0:0:
36,192,193343,1,0,0:0:0:50:Kick.wav
402,192,193343,1,0,0:0:0:0:
182,192,193343,1,0,0:0:0:0:
329,192,193509,1,0,0:0:0:0:
109,192,193509,1,0,0:0:0:0:
475,192,193593,1,0,0:0:0:0:
36,192,193676,1,0,0:0:0:50:Kick.wav
402,192,193676,1,0,0:0:0:0:
182,192,193676,128,0,193843:0:0:0:0:
402,192,193843,1,0,0:0:0:0:
109,192,193843,1,0,0:0:0:0:
329,192,193926,1,0,0:0:0:0:
182,192,193926,1,0,0:0:0:0:
36,192,194009,1,0,0:0:0:50:Kick.wav
475,192,194009,1,0,0:0:0:0:
256,192,194009,128,0,194259:0:0:0:0:
182,192,194093,1,0,0:0:0:50:Kick.wav
36,192,194176,1,0,0:0:0:50:Kick.wav
475,192,194176,1,0,0:0:0:0:
182,192,194259,1,0,0:0:0:50:Kick.wav
329,192,194259,1,0,0:0:0:0:
36,192,194343,1,0,0:0:0:50:Kick.wav
402,192,194343,1,0,0:0:0:0:
475,192,194343,128,0,194676:0:0:0:0:
109,192,194343,128,0,194426:0:0:0:0:
109,192,194509,1,0,0:0:0:50:Kick.wav
329,192,194509,1,0,0:0:0:0:
182,192,194509,128,0,194593:0:0:0:0:
402,192,194593,1,0,0:0:0:0:
36,192,194676,1,0,0:0:0:50:Kick.wav
182,192,194676,1,0,0:0:0:0:
475,192,194843,1,0,0:0:0:0:
329,192,194926,1,0,0:0:0:0:
256,192,194926,128,0,195093:0:0:0:0:
36,192,195009,1,0,0:0:0:50:Kick.wav
402,192,195009,1,0,0:0:0:0:
402,192,195176,1,0,0:0:0:0:
109,192,195176,1,0,0:0:0:0:
475,192,195259,1,0,0:0:0:0:
36,192,195343,1,0,0:0:0:50:Kick.wav
329,192,195343,1,0,0:0:0:0:
182,192,195343,1,0,0:0:0:0:
475,192,195509,1,0,0:0:0:0:
109,192,195509,1,0,0:0:0:0:
329,192,195593,1,0,0:0:0:0:
36,192,195676,1,0,0:0:0:50:Kick.wav
402,192,195676,1,0,0:0:0:0:
256,192,195676,128,0,195843:0:0:0:0:
402,192,195843,1,0,0:0:0:0:
109,192,195843,1,0,0:0:0:0:
475,192,195926,1,0,0:0:0:0:
36,192,196009,1,0,0:0:0:50:Kick.wav
329,192,196009,1,0,0:0:0:0:
182,192,196009,1,0,0:0:0:0:
475,192,196176,1,0,0:0:0:0:
109,192,196176,1,0,0:0:0:0:
329,192,196259,1,0,0:0:0:0:
36,192,196343,1,0,0:0:0:50:Kick.wav
402,192,196343,1,0,0:0:0:0:
256,192,196343,128,0,196509:0:0:0:0:
402,192,196509,1,0,0:0:0:0:
109,192,196509,1,0,0:0:0:0:
475,192,196593,1,0,0:0:0:0:
182,192,196593,1,0,0:0:0:0:
36,192,196676,1,0,0:0:0:50:Kick.wav
256,192,196676,1,0,0:0:0:0:
329,192,196676,128,0,197009:0:0:0:0:
36,192,196843,1,0,0:0:0:50:Kick.wav
475,192,196843,1,0,0:0:0:0:
402,192,196926,1,0,0:0:0:0:
109,192,197009,1,0,0:0:0:50:Kick.wav
256,192,197009,1,0,0:0:0:0:
182,192,197009,128,0,197343:0:0:0:0:
475,192,197009,128,0,197176:0:0:0:0:
109,192,197176,1,0,0:0:0:50:Kick.wav
329,192,197176,1,0,0:0:0:0:
402,192,197259,1,0,0:0:0:0:
36,192,197343,1,0,0:0:0:50:Kick.wav
475,192,197343,1,0,0:0:0:0:
256,192,197343,1,0,0:0:0:0:
329,192,197509,1,0,0:0:0:0:
475,192,197593,1,0,0:0:0:0:
182,192,197593,128,0,197759:0:0:0:0:
36,192,197676,1,0,0:0:0:50:Kick.wav
329,192,197676,1,0,0:0:0:0:
402,192,197843,1,0,0:0:0:0:
109,192,197843,1,0,0:0:0:0:
256,192,197926,1,0,0:0:0:0:
36,192,198009,1,0,0:0:0:50:Kick.wav
402,192,198009,1,0,0:0:0:0:
182,192,198009,1,0,0:0:0:0:
329,192,198176,1,0,0:0:0:0:
109,192,198176,1,0,0:0:0:0:
475,192,198259,1,0,0:0:0:0:
36,192,198343,1,0,0:0:0:50:Kick.wav
329,192,198343,1,0,0:0:0:0:
182,192,198343,128,0,198509:0:0:0:0:
402,192,198509,1,0,0:0:0:0:
109,192,198509,1,0,0:0:0:0:
256,192,198593,1,0,0:0:0:0:
36,192,198676,1,0,0:0:0:50:Kick.wav
402,192,198676,1,0,0:0:0:0:
182,192,198676,1,0,0:0:0:0:
329,192,198843,1,0,0:0:0:0:
109,192,198843,1,0,0:0:0:0:
475,192,198926,1,0,0:0:0:0:
36,192,199009,1,0,0:0:0:50:Kick.wav
402,192,199009,1,0,0:0:0:0:
182,192,199009,128,0,199176:0:0:0:0:
402,192,199176,1,0,0:0:0:0:
109,192,199176,1,0,0:0:0:0:
329,192,199259,1,0,0:0:0:0:
182,192,199259,1,0,0:0:0:0:
36,192,199343,1,0,0:0:0:50:Kick.wav
475,192,199343,1,0,0:0:0:0:
256,192,199343,128,0,199676:0:0:0:0:
182,192,199426,1,0,0:0:0:50:Kick.wav
109,192,199509,1,0,0:0:0:50:Kick.wav
475,192,199509,1,0,0:0:0:0:
182,192,199593,1,0,0:0:0:50:Kick.wav
329,192,199593,1,0,0:0:0:0:
36,192,199676,1,0,0:0:0:50:Kick.wav
109,192,199676,1,0,0:0:0:0:
475,192,199676,128,0,200009:0:0:0:0:
402,192,199676,128,0,200009:0:0:0:0:
109,192,199843,1,0,0:0:0:50:Kick.wav
329,192,199843,1,0,0:0:0:0:
182,192,199926,1,0,0:0:0:0:
36,192,200009,1,0,0:0:0:50:Kick.wav
329,192,200009,1,0,0:0:0:0:
109,192,200009,1,0,0:0:0:0:
329,192,200176,1,0,0:0:0:0:
182,192,200259,128,0,200426:0:0:0:0:
475,192,200259,1,0,0:0:0:0:
36,192,200343,1,0,0:0:0:50:Kick.wav
329,192,200343,1,0,0:0:0:0:
182,192,200509,1,0,0:0:0:0:
402,192,200509,1,0,0:0:0:0:
402,192,200593,1,0,0:0:0:0:
36,192,200676,1,0,0:0:0:50:Kick.wav
256,192,200676,1,0,0:0:0:0:
475,192,200676,1,0,0:0:0:0:
182,192,200843,1,0,0:0:0:0:
329,192,200843,1,0,0:0:0:0:
475,192,200926,1,0,0:0:0:0:
36,192,201009,1,0,0:0:0:50:Kick.wav
256,192,201009,128,0,201176:0:0:0:0:
329,192,201009,1,0,0:0:0:0:
109,192,201176,1,0,0:0:0:0:
402,192,201176,1,0,0:0:0:0:
402,192,201259,1,0,0:0:0:0:
36,192,201343,1,0,0:0:0:50:Kick.wav
256,192,201343,1,0,0:0:0:0:
475,192,201343,1,0,0:0:0:0:
109,192,201509,1,0,0:0:0:0:
329,192,201509,1,0,0:0:0:0:
475,192,201593,1,0,0:0:0:0:
36,192,201676,1,0,0:0:0:50:Kick.wav
182,192,201676,128,0,201843:0:0:0:0:
329,192,201676,1,0,0:0:0:0:
109,192,201843,1,0,0:0:0:0:
402,192,201843,1,0,0:0:0:0:
182,192,201926,1,0,0:0:0:0:
402,192,201926,1,0,0:0:0:0:
36,192,202009,1,0,0:0:0:50:Kick.wav
256,192,202009,128,0,202343:0:0:0:0:
329,192,202009,1,0,0:0:0:0:
182,192,202176,1,0,0:0:0:50:Kick.wav
402,192,202176,1,0,0:0:0:0:
475,192,202259,1,0,0:0:0:0:
36,192,202343,1,0,0:0:0:50:Kick.wav
109,192,202343,128,0,202676:0:0:0:0:
402,192,202343,1,0,0:0:0:0:
329,192,202343,128,0,202509:0:0:0:0:
182,192,202509,1,0,0:0:0:50:Kick.wav
475,192,202509,1,0,0:0:0:0:
402,192,202593,1,0,0:0:0:0:
256,192,202676,5,0,0:0:0:0:
475,192,202676,1,0,0:0:0:0:
36,192,202676,1,0,0:0:0:50:Kick.wav
475,192,202843,1,0,0:0:0:0:
329,192,202926,1,0,0:0:0:0:
182,192,202926,128,0,203093:0:0:0:0:
475,192,203009,1,0,0:0:0:0:
36,192,203009,1,0,0:0:0:50:Kick.wav
402,192,203176,1,0,0:0:0:0:
109,192,203176,1,0,0:0:0:0:
402,192,203259,1,0,0:0:0:0:
329,192,203343,1,0,0:0:0:0:
36,192,203343,1,0,0:0:0:50:Kick.wav
182,192,203343,1,0,0:0:0:0:
475,192,203509,1,0,0:0:0:0:
109,192,203509,1,0,0:0:0:0:
329,192,203593,1,0,0:0:0:0:
475,192,203676,1,0,0:0:0:0:
36,192,203676,1,0,0:0:0:50:Kick.wav
256,192,203676,128,0,203843:0:0:0:0:
402,192,203843,1,0,0:0:0:0:
109,192,203843,1,0,0:0:0:0:
402,192,203926,1,0,0:0:0:0:
329,192,204009,1,0,0:0:0:0:
36,192,204009,1,0,0:0:0:50:Kick.wav
182,192,204009,1,0,0:0:0:0:
475,192,204176,1,0,0:0:0:0:
109,192,204176,1,0,0:0:0:0:
329,192,204259,1,0,0:0:0:0:
475,192,204343,1,0,0:0:0:0:
36,192,204343,1,0,0:0:0:50:Kick.wav
182,192,204343,128,0,204509:0:0:0:0:
402,192,204509,1,0,0:0:0:0:
109,192,204509,1,0,0:0:0:0:
402,192,204593,1,0,0:0:0:0:
182,192,204593,1,0,0:0:0:0:
329,192,204676,1,0,0:0:0:0:
36,192,204676,1,0,0:0:0:50:Kick.wav
256,192,204676,128,0,205009:0:0:0:0:
182,192,204759,1,0,0:0:0:50:Kick.wav
475,192,204843,1,0,0:0:0:50:Kick.wav
109,192,204843,1,0,0:0:0:50:Kick.wav
329,192,204926,1,0,0:0:0:0:
182,192,204926,1,0,0:0:0:50:Kick.wav
475,192,205009,1,0,0:0:0:50:Kick.wav
402,192,205009,128,0,205343:0:0:0:0:
36,192,205009,1,0,0:0:0:50:Kick.wav
109,192,205009,128,0,205093:0:0:0:0:
329,192,205176,1,0,0:0:0:0:
109,192,205176,1,0,0:0:0:50:Kick.wav
182,192,205176,128,0,205259:0:0:0:0:
329,192,205259,1,0,0:0:0:0:
36,192,205343,1,0,0:0:0:50:Kick.wav
475,192,205343,1,0,0:0:0:0:
182,192,205343,1,0,0:0:0:0:
329,192,205509,1,0,0:0:0:0:
182,192,205593,128,0,205759:0:0:0:0:
475,192,205593,1,0,0:0:0:0:
36,192,205676,1,0,0:0:0:50:Kick.wav
329,192,205676,1,0,0:0:0:0:
182,192,205843,1,0,0:0:0:0:
402,192,205843,1,0,0:0:0:0:
402,192,205926,1,0,0:0:0:0:
36,192,206009,1,0,0:0:0:50:Kick.wav
256,192,206009,1,0,0:0:0:0:
475,192,206009,1,0,0:0:0:0:
182,192,206176,1,0,0:0:0:0:
329,192,206176,1,0,0:0:0:0:
475,192,206259,1,0,0:0:0:0:
36,192,206343,1,0,0:0:0:50:Kick.wav
256,192,206343,128,0,206509:0:0:0:0:
329,192,206343,1,0,0:0:0:0:
109,192,206509,1,0,0:0:0:0:
402,192,206509,1,0,0:0:0:0:
402,192,206593,1,0,0:0:0:0:
36,192,206676,1,0,0:0:0:50:Kick.wav
256,192,206676,1,0,0:0:0:0:
475,192,206676,1,0,0:0:0:0:
109,192,206843,1,0,0:0:0:0:
329,192,206843,1,0,0:0:0:0:
475,192,206926,1,0,0:0:0:0:
36,192,207009,5,0,0:0:0:50:Kick.wav
182,192,207009,128,0,207176:0:0:0:0:
329,192,207009,1,0,0:0:0:0:
109,192,207176,1,0,0:0:0:0:
402,192,207176,1,0,0:0:0:0:
182,192,207259,1,0,0:0:0:0:
402,192,207259,1,0,0:0:0:0:
36,192,207343,1,0,0:0:0:50:Kick.wav
256,192,207343,128,0,207676:0:0:0:0:
329,192,207343,1,0,0:0:0:0:
182,192,207509,1,0,0:0:0:50:Kick.wav
402,192,207509,1,0,0:0:0:0:
475,192,207593,1,0,0:0:0:0:
36,192,207676,1,0,0:0:0:50:Kick.wav
109,192,207676,128,0,208009:0:0:0:0:
402,192,207676,1,0,0:0:0:0:
329,192,207676,128,0,207843:0:0:0:0:
182,192,207843,1,0,0:0:0:50:Kick.wav
475,192,207843,1,0,0:0:0:0:
402,192,207926,1,0,0:0:0:0:
256,192,208009,5,0,0:0:0:0:
475,192,208009,1,0,0:0:0:0:
36,192,208009,1,0,0:0:0:50:Kick.wav
475,192,208176,1,0,0:0:0:0:
329,192,208259,1,0,0:0:0:0:
182,192,208259,128,0,208426:0:0:0:0:
475,192,208343,1,0,0:0:0:0:
36,192,208343,1,0,0:0:0:50:Kick.wav
402,192,208509,1,0,0:0:0:0:
109,192,208509,1,0,0:0:0:0:
402,192,208593,1,0,0:0:0:0:
329,192,208676,1,0,0:0:0:0:
36,192,208676,1,0,0:0:0:50:Kick.wav
182,192,208676,1,0,0:0:0:0:
475,192,208843,1,0,0:0:0:0:
109,192,208843,1,0,0:0:0:0:
329,192,208926,1,0,0:0:0:0:
475,192,209009,1,0,0:0:0:0:
36,192,209009,1,0,0:0:0:50:Kick.wav
256,192,209009,128,0,209176:0:0:0:0:
402,192,209176,1,0,0:0:0:0:
109,192,209176,1,0,0:0:0:0:
402,192,209259,1,0,0:0:0:0:
329,192,209343,1,0,0:0:0:0:
36,192,209343,1,0,0:0:0:50:Kick.wav
182,192,209343,1,0,0:0:0:0:
475,192,209509,1,0,0:0:0:0:
109,192,209509,1,0,0:0:0:0:
329,192,209593,1,0,0:0:0:0:
475,192,209676,1,0,0:0:0:0:
36,192,209676,1,0,0:0:0:50:Kick.wav
182,192,209676,128,0,209843:0:0:0:0:
402,192,209843,1,0,0:0:0:0:
109,192,209843,1,0,0:0:0:0:
402,192,209926,1,0,0:0:0:0:
182,192,209926,1,0,0:0:0:0:
329,192,210009,1,0,0:0:0:0:
36,192,210009,1,0,0:0:0:50:Kick.wav
256,192,210009,128,0,210343:0:0:0:0:
182,192,210093,1,0,0:0:0:50:Kick.wav
475,192,210176,1,0,0:0:0:50:Kick.wav
36,192,210176,1,0,0:0:0:50:Kick.wav
329,192,210259,1,0,0:0:0:0:
182,192,210259,1,0,0:0:0:50:Kick.wav
475,192,210343,1,0,0:0:0:50:Kick.wav
402,192,210343,128,0,210676:0:0:0:0:
36,192,210343,1,0,0:0:0:50:Kick.wav
109,192,210343,128,0,210676:0:0:0:0:
329,192,210509,1,0,0:0:0:0:
182,192,210509,1,0,0:0:0:50:Kick.wav
329,192,210593,1,0,0:0:0:0:
36,192,210676,1,0,0:0:0:50:Kick.wav
475,192,210676,1,0,0:0:0:0:
182,192,210676,1,4,0:0:0:0:
256,192,210843,1,0,0:0:0:0:
36,192,211009,1,0,0:0:0:50:Kick.wav
475,192,211009,1,0,0:0:0:45:Clap.wav
329,192,211009,1,0,0:0:0:0:
109,192,211176,1,0,0:0:0:0:
36,192,211343,1,0,0:0:0:50:Kick.wav
256,192,211343,1,0,0:0:0:0:
402,192,211426,1,0,0:0:0:0:
109,192,211509,1,0,0:0:0:0:
36,192,211676,1,0,0:0:0:50:Kick.wav
475,192,211676,1,0,0:0:0:45:Clap.wav
182,192,211676,1,0,0:0:0:0:
256,192,211843,1,0,0:0:0:0:
36,192,212009,1,0,0:0:0:50:Kick.wav
402,192,212009,1,0,0:0:0:0:
329,192,212176,1,0,0:0:0:0:
36,192,212343,1,0,0:0:0:50:Kick.wav
475,192,212343,1,0,0:0:0:45:Clap.wav
182,192,212343,1,0,0:0:0:0:
256,192,212509,1,0,0:0:0:0:
329,192,212676,1,0,0:0:0:0:
182,192,212676,1,0,0:0:0:50:Kick.wav
256,192,212843,1,0,0:0:0:0:
109,192,212843,1,0,0:0:0:50:Kick.wav
475,192,212843,1,0,0:0:0:45:Clap.wav
182,192,213009,1,0,0:0:0:0:
36,192,213009,1,0,0:0:0:50:Kick.wav
36,192,213176,1,0,0:0:0:50:Kick.wav
36,192,213343,5,0,0:0:0:50:Kick.wav
109,192,213343,1,0,0:0:0:0:
256,192,213343,128,0,213426:0:0:0:0:
182,192,213509,1,0,0:0:0:0:
329,192,213509,128,0,213593:0:0:0:0:
475,192,213676,1,0,0:0:0:45:Clap.wav
36,192,213676,1,0,0:0:0:50:Kick.wav
256,192,213676,1,0,0:0:0:0:
402,192,213676,128,0,213759:0:0:0:0:
109,192,213843,1,0,0:0:0:0:
256,192,213843,128,0,213926:0:0:0:0:
182,192,214009,1,0,0:0:0:50:Kick.wav
36,192,214009,1,0,0:0:0:0:
402,192,214009,128,0,214093:0:0:0:0:
256,192,214093,1,0,0:0:0:0:
475,192,214093,128,0,214176:0:0:0:0:
182,192,214176,1,0,0:0:0:0:
109,192,214176,128,0,214259:0:0:0:0:
475,192,214343,1,0,0:0:0:45:Clap.wav
36,192,214343,1,0,0:0:0:50:Kick.wav
182,192,214343,1,0,0:0:0:0:
329,192,214343,128,0,214426:0:0:0:0:
256,192,214509,1,0,0:0:0:0:
402,192,214509,128,0,214593:0:0:0:0:
36,192,214676,1,0,0:0:0:50:Kick.wav
402,192,214676,1,0,0:0:0:0:
475,192,214676,128,0,214759:0:0:0:0:
329,192,214843,1,0,0:0:0:0:
402,192,214843,128,0,214926:0:0:0:0:
475,192,215009,1,0,0:0:0:45:Clap.wav
36,192,215009,1,0,0:0:0:50:Kick.wav
256,192,215009,1,0,0:0:0:0:
329,192,215009,128,0,215093:0:0:0:0:
182,192,215176,1,0,0:0:0:0:
109,192,215176,128,0,215259:0:0:0:0:
36,192,215343,1,0,0:0:0:50:Kick.wav
329,192,215343,1,0,0:0:0:0:
256,192,215343,128,0,215426:0:0:0:0:
182,192,215426,1,0,0:0:0:50:Kick.wav
475,192,215509,1,0,0:0:0:45:Clap.wav
109,192,215509,1,0,0:0:0:50:Kick.wav
329,192,215509,1,0,0:0:0:0:
402,192,215509,128,0,215843:0:0:0:0:
36,192,215593,1,0,0:0:0:50:Kick.wav
182,192,215676,1,0,0:0:0:50:Kick.wav
109,192,215843,1,0,0:0:0:50:Kick.wav
182,192,215843,1,0,0:0:0:0:
329,192,215843,128,0,215926:0:0:0:0:
475,192,215926,1,0,0:0:0:0:
256,192,215926,128,0,216009:0:0:0:0:
36,192,216009,1,0,0:0:0:50:Kick.wav
182,192,216009,1,0,0:0:0:0:
402,192,216009,1,0,0:0:0:0:
256,192,216176,1,0,0:0:0:0:
36,192,216343,1,0,0:0:0:50:Kick.wav
329,192,216343,1,0,0:0:0:0:
475,192,216343,1,0,0:0:0:45:Clap.wav
109,192,216509,1,0,0:0:0:0:
36,192,216676,1,0,0:0:0:50:Kick.wav
256,192,216676,1,0,0:0:0:0:
402,192,216759,1,0,0:0:0:0:
109,192,216843,1,0,0:0:0:0:
36,192,217009,1,0,0:0:0:50:Kick.wav
182,192,217009,1,0,0:0:0:0:
475,192,217009,1,0,0:0:0:45:Clap.wav
256,192,217176,1,0,0:0:0:0:
109,192,217343,1,0,0:0:0:50:Kick.wav
402,192,217343,1,0,0:0:0:0:
329,192,217509,1,0,0:0:0:0:
36,192,217676,1,0,0:0:0:50:Kick.wav
182,192,217676,1,0,0:0:0:0:
475,192,217676,1,0,0:0:0:45:Clap.wav
256,192,217843,1,0,0:0:0:0:
36,192,218009,1,0,0:0:0:50:Kick.wav
329,192,218009,1,0,0:0:0:0:
475,192,218176,1,0,0:0:0:45:Clap.wav
256,192,218176,1,0,0:0:0:0:
36,192,218343,1,0,0:0:0:50:Kick.wav
475,192,218343,1,0,0:0:0:0:
109,192,218384,1,0,0:0:0:50:Kick.wav
329,192,218426,1,0,0:0:0:50:Kick.wav
402,192,218468,1,0,0:0:0:50:Kick.wav
182,192,218509,1,0,0:0:0:50:Kick.wav
36,192,218676,1,0,0:0:0:50:Kick.wav
182,192,218676,1,0,0:0:0:0:
256,192,218843,1,0,0:0:0:0:
36,192,219009,1,0,0:0:0:50:Kick.wav
475,192,219009,1,0,0:0:0:45:Clap.wav
329,192,219009,1,0,0:0:0:0:
109,192,219176,1,0,0:0:0:0:
36,192,219343,1,0,0:0:0:50:Kick.wav
256,192,219343,1,0,0:0:0:0:
402,192,219426,1,0,0:0:0:0:
109,192,219509,1,0,0:0:0:0:
36,192,219676,1,0,0:0:0:50:Kick.wav
475,192,219676,1,0,0:0:0:45:Clap.wav
182,192,219676,1,0,0:0:0:0:
256,192,219843,1,0,0:0:0:0:
109,192,220009,1,0,0:0:0:50:Kick.wav
402,192,220009,1,0,0:0:0:0:
329,192,220176,1,0,0:0:0:0:
36,192,220343,1,0,0:0:0:50:Kick.wav
475,192,220343,1,0,0:0:0:45:Clap.wav
182,192,220343,1,0,0:0:0:0:
256,192,220509,1,0,0:0:0:0:
36,192,220676,1,0,0:0:0:50:Kick.wav
329,192,220676,1,0,0:0:0:0:
182,192,220759,1,0,0:0:0:50:Kick.wav
36,192,220843,1,0,0:0:0:50:Kick.wav
475,192,220843,1,0,0:0:0:45:Clap.wav
182,192,220926,1,0,0:0:0:50:Kick.wav
329,192,221009,1,0,0:0:0:50:Kick.wav
256,192,221009,128,0,221343:0:0:0:0:
109,192,221176,1,0,0:0:0:50:Kick.wav
36,192,221343,1,0,0:0:0:50:Kick.wav
329,192,221343,1,0,0:0:0:45:Snare.wav
182,192,221343,1,0,0:0:0:0:
256,192,221509,1,0,0:0:0:0:
109,192,221676,1,0,0:0:0:50:Kick.wav
402,192,221676,1,0,0:0:0:45:Snare.wav
475,192,221676,1,0,0:0:0:45:Clap.wav
182,192,221676,1,0,0:0:0:0:
329,192,221843,1,0,0:0:0:0:
182,192,222009,1,0,0:0:0:50:Kick.wav
475,192,222009,1,0,0:0:0:45:Snare.wav
329,192,222009,1,0,0:0:0:0:
109,192,222093,1,0,0:0:0:0:
256,192,222176,1,0,0:0:0:0:
36,192,222343,1,0,0:0:0:50:Kick.wav
329,192,222343,1,0,0:0:0:45:Snare.wav
402,192,222343,1,0,0:0:0:45:Clap.wav
109,192,222343,1,0,0:0:0:0:
182,192,222509,1,0,0:0:0:0:
109,192,222676,1,0,0:0:0:50:Kick.wav
475,192,222676,1,0,0:0:0:45:Snare.wav
329,192,222676,1,0,0:0:0:0:
329,192,222843,1,0,0:0:0:0:
36,192,223009,1,0,0:0:0:50:Kick.wav
402,192,223009,1,0,0:0:0:45:Snare.wav
475,192,223009,1,0,0:0:0:45:Clap.wav
256,192,223009,1,0,0:0:0:0:
256,192,223176,1,0,0:0:0:0:
109,192,223343,1,0,0:0:0:50:Kick.wav
402,192,223343,1,0,0:0:0:45:Snare.wav
256,192,223343,1,0,0:0:0:0:
36,192,223509,1,0,0:0:0:50:Kick.wav
329,192,223509,1,0,0:0:0:45:Snare.wav
475,192,223509,1,0,0:0:0:45:Clap.wav
182,192,223509,1,0,0:0:0:0:
109,192,223676,1,0,0:0:0:50:Kick.wav
402,192,223676,1,0,0:0:0:45:Snare.wav
256,192,223676,1,0,0:0:0:0:
109,192,223843,1,0,0:0:0:50:Kick.wav
402,192,223843,1,0,0:0:0:45:Snare.wav
36,192,224009,1,0,0:0:0:50:Kick.wav
329,192,224009,1,0,0:0:0:45:Snare.wav
182,192,224009,128,0,224093:0:0:0:0:
256,192,224176,128,0,224259:0:0:0:0:
109,192,224343,1,0,0:0:0:50:Kick.wav
329,192,224343,1,0,0:0:0:45:Snare.wav
475,192,224343,1,0,0:0:0:45:Clap.wav
402,192,224343,128,0,224426:0:0:0:0:
256,192,224509,128,0,224593:0:0:0:0:
36,192,224676,1,0,0:0:0:50:Kick.wav
329,192,224676,1,0,0:0:0:45:Snare.wav
182,192,224676,128,0,224759:0:0:0:0:
402,192,224759,128,0,224843:0:0:0:0:
182,192,224843,128,0,224926:0:0:0:0:
109,192,225009,1,0,0:0:0:50:Kick.wav
329,192,225009,1,0,0:0:0:45:Snare.wav
475,192,225009,1,0,0:0:0:45:Clap.wav
256,192,225009,128,0,225093:0:0:0:0:
402,192,225176,128,0,225259:0:0:0:0:
36,192,225343,1,0,0:0:0:50:Kick.wav
329,192,225343,1,0,0:0:0:45:Snare.wav
475,192,225343,128,0,225426:0:0:0:0:
329,192,225509,128,0,225593:0:0:0:0:
36,192,225676,1,0,0:0:0:50:Kick.wav
329,192,225676,1,0,0:0:0:45:Snare.wav
475,192,225676,1,0,0:0:0:45:Clap.wav
182,192,225676,128,0,225759:0:0:0:0:
109,192,225843,128,0,225926:0:0:0:0:
329,192,226009,1,0,0:0:0:50:Kick.wav
402,192,226009,1,0,0:0:0:45:Snare.wav
256,192,226009,128,0,226093:0:0:0:0:
36,192,226093,1,0,0:0:0:50:Kick.wav
109,192,226093,1,0,0:0:0:45:Snare.wav
182,192,226176,1,0,0:0:0:50:Kick.wav
329,192,226176,1,0,0:0:0:45:Snare.wav
475,192,226176,1,0,0:0:0:45:Clap.wav
402,192,226176,128,0,226509:0:0:0:0:
109,192,226259,1,0,0:0:0:50:Kick.wav
256,192,226259,1,0,0:0:0:45:Snare.wav
36,192,226343,1,0,0:0:0:50:Kick.wav
182,192,226343,1,0,0:0:0:45:Snare.wav
475,192,226509,1,0,0:0:0:50:Kick.wav
329,192,226509,1,0,0:0:0:45:Snare.wav
256,192,226509,128,0,226593:0:0:0:0:
109,192,226593,128,0,226676:0:0:0:0:
36,192,226676,1,0,0:0:0:50:Kick.wav
402,192,226676,1,0,0:0:0:45:Snare.wav
182,192,226676,1,0,0:0:0:0:
329,192,226843,1,0,0:0:0:45:Snare.wav
109,192,226843,1,0,0:0:0:0:
36,192,227009,1,0,0:0:0:50:Kick.wav
402,192,227009,1,0,0:0:0:45:Snare.wav
475,192,227009,1,0,0:0:0:45:Clap.wav
182,192,227009,1,0,0:0:0:0:
256,192,227176,1,0,0:0:0:45:Snare.wav
109,192,227176,1,0,0:0:0:0:
36,192,227343,1,0,0:0:0:50:Kick.wav
475,192,227343,1,0,0:0:0:45:Snare.wav
329,192,227343,1,0,0:0:0:0:
256,192,227426,1,0,0:0:0:0:
402,192,227509,1,0,0:0:0:45:Snare.wav
182,192,227509,1,0,0:0:0:0:
36,192,227676,1,0,0:0:0:50:Kick.wav
329,192,227676,1,0,0:0:0:45:Snare.wav
475,192,227676,1,0,0:0:0:45:Clap.wav
109,192,227676,1,0,0:0:0:0:
402,192,227843,1,0,0:0:0:45:Snare.wav
182,192,227843,1,0,0:0:0:0:
36,192,228009,1,0,0:0:0:50:Kick.wav
475,192,228009,1,0,0:0:0:45:Snare.wav
256,192,228009,1,0,0:0:0:0:
402,192,228176,1,0,0:0:0:45:Snare.wav
109,192,228176,1,0,0:0:0:0:
36,192,228343,1,0,0:0:0:50:Kick.wav
329,192,228343,1,0,0:0:0:45:Snare.wav
475,192,228343,1,0,0:0:0:45:Clap.wav
182,192,228343,1,0,0:0:0:0:
402,192,228509,1,0,0:0:0:45:Snare.wav
109,192,228509,1,0,0:0:0:0:
36,192,228676,1,0,0:0:0:50:Kick.wav
475,192,228676,1,0,0:0:0:45:Snare.wav
256,192,228676,1,0,0:0:0:0:
256,192,228843,1,0,0:0:0:45:Snare.wav
402,192,228843,1,0,0:0:0:45:Clap.wav
109,192,228843,1,0,0:0:0:0:
256,192,229009,1,0,0:0:0:50:Kick.wav
475,192,229009,1,0,0:0:0:45:Snare.wav
109,192,229009,1,0,0:0:0:0:
402,192,229051,1,0,0:0:0:50:Kick.wav
182,192,229093,1,0,0:0:0:50:Kick.wav
109,192,229134,1,0,0:0:0:50:Kick.wav
329,192,229176,1,0,0:0:0:50:Kick.wav
475,192,229176,1,0,0:0:0:45:Snare.wav
36,192,229343,1,0,0:0:0:50:Kick.wav
182,192,229343,1,0,0:0:0:45:Snare.wav
109,192,229343,128,0,229426:0:0:0:0:
329,192,229343,1,4,0:0:0:0:
402,192,229426,1,0,0:0:0:45:Snare.wav
256,192,229509,1,0,0:0:0:45:Snare.wav
182,192,229509,128,0,229593:0:0:0:0:
475,192,229593,1,0,0:0:0:45:Snare.wav
36,192,229676,1,0,0:0:0:50:Kick.wav
329,192,229676,1,0,0:0:0:45:Snare.wav
109,192,229676,1,0,0:0:0:45:Clap.wav
256,192,229676,128,0,229759:0:0:0:0:
475,192,229759,1,0,0:0:0:45:Snare.wav
182,192,229843,1,0,0:0:0:45:Snare.wav
109,192,229843,128,0,229926:0:0:0:0:
329,192,229926,1,0,0:0:0:45:Snare.wav
36,192,230009,1,0,0:0:0:50:Kick.wav
329,192,230009,1,0,0:0:0:45:Snare.wav
256,192,230009,128,0,230093:0:0:0:0:
182,192,230009,1,4,0:0:0:0:
475,192,230093,1,0,0:0:0:45:Snare.wav
402,192,230093,128,0,230176:0:0:0:0:
256,192,230176,1,0,0:0:0:45:Snare.wav
182,192,230176,128,0,230259:0:0:0:0:
402,192,230259,1,0,0:0:0:45:Snare.wav
36,192,230343,1,0,0:0:0:50:Kick.wav
475,192,230343,1,0,0:0:0:45:Snare.wav
109,192,230343,1,0,0:0:0:45:Clap.wav
256,192,230343,128,0,230426:0:0:0:0:
329,192,230426,1,0,0:0:0:45:Snare.wav
182,192,230509,128,0,230593:0:0:0:0:
402,192,230509,1,0,0:0:0:45:Snare.wav
256,192,230593,1,0,0:0:0:45:Snare.wav
36,192,230676,1,0,0:0:0:50:Kick.wav
402,192,230676,1,0,0:0:0:45:Snare.wav
475,192,230676,128,0,230759:0:0:0:0:
182,192,230676,1,4,0:0:0:0:
256,192,230759,1,0,0:0:0:45:Snare.wav
329,192,230843,1,0,0:0:0:45:Snare.wav
402,192,230843,128,0,230926:0:0:0:0:
182,192,230926,1,0,0:0:0:45:Snare.wav
36,192,231009,1,0,0:0:0:50:Kick.wav
329,192,231009,1,0,0:0:0:45:Snare.wav
109,192,231009,1,0,0:0:0:45:Clap.wav
256,192,231009,128,0,231093:0:0:0:0:
402,192,231009,1,4,0:0:0:0:
475,192,231093,1,0,0:0:0:45:Snare.wav
256,192,231176,1,0,0:0:0:45:Snare.wav
182,192,231176,128,0,231259:0:0:0:0:
402,192,231259,1,0,0:0:0:45:Snare.wav
36,192,231343,1,0,0:0:0:50:Kick.wav
182,192,231343,1,0,0:0:0:45:Snare.wav
329,192,231343,128,0,231426:0:0:0:0:
109,192,231426,1,0,0:0:0:50:Kick.wav
256,192,231426,1,0,0:0:0:45:Snare.wav
402,192,231426,128,0,231509:0:0:0:0:
36,192,231509,1,0,0:0:0:50:Kick.wav
329,192,231509,1,0,0:0:0:45:Snare.wav
182,192,231509,1,0,0:0:0:45:Clap.wav
475,192,231509,128,0,232009:0:0:0:0:
109,192,231593,1,0,0:0:0:50:Kick.wav
256,192,231593,1,0,0:0:0:45:Snare.wav
182,192,231676,1,0,0:0:0:50:Kick.wav
329,192,231676,1,0,0:0:0:45:Snare.wav
402,192,231759,1,0,0:0:0:45:Snare.wav
109,192,231843,1,0,0:0:0:50:Kick.wav
256,192,231843,1,0,0:0:0:45:Snare.wav
329,192,231926,1,0,0:0:0:45:Snare.wav
36,192,232009,1,0,0:0:0:50:Kick.wav
182,192,232009,1,4,0:0:0:0:
